<?xml version="1.0" standalone="no"?>
<!DOCTYPE svg PUBLIC "-//W3C//DTD SVG 1.1//EN" "http://www.w3.org/Graphics/SVG/1.1/DTD/svg11.dtd">
<svg xmlns="http://www.w3.org/2000/svg">
<metadata>Copyright (C) 2022 by original authors @ fontello.com</metadata>
<defs>
<font id="consulter" horiz-adv-x="1000" >
<font-face font-family="consulter" font-weight="400" font-stretch="normal" units-per-em="1000" ascent="850" descent="-150" />
<missing-glyph horiz-adv-x="1000" />
<glyph glyph-name="close-3" unicode="&#xe800;" d="M250 819c-138 0-250-112-250-250v-438c0-138 112-250 250-250h438c138 0 250 112 250 250v438c0 138-112 250-250 250h-438z m630-630c0-138-112-250-250-250h-322c-138 0-250 112-250 250v322c0 138 112 250 250 250h322c138 0 250-112 250-250v-322z m-571-39l160 159 159-159 41 41-159 159 159 159-41 41-159-159-160 159-41-41 160-159-160-159 41-41z" horiz-adv-x="938" />

<glyph glyph-name="coffee-1" unicode="&#xe801;" d="M120 226c-2 10-4 19-6 29 0 4 1 9 4 13 2 4 6 6 11 7 5 0 9-1 13-3 4-3 6-7 7-12 1-9 3-17 5-26 1-4 0-9-2-13-3-4-7-7-11-8-5-1-9 0-13 2-4 3-7 7-8 11v0z m107-188c-38 35-67 79-87 126-2 5-2 9 0 14 2 4 5 7 9 9 5 2 9 2 14 0 4-2 7-5 9-9 18-43 45-82 79-115 3-3 5-7 5-12 1-5-1-9-4-13-4-3-8-5-13-5-4 0-9 2-12 5v0z m729 270c-23 9-49 11-73 6v21c0 14-5 27-15 36-9 10-22 16-35 16h-726c-13 0-26-6-36-16-9-9-14-22-14-36v-21c0-64 14-127 41-184 27-58 66-109 115-150h-191c-5-1-9-3-13-7-3-4-5-8-5-13 0-76 105-104 175-104h601c70 0 174 28 174 104l1 2c0 5-2 9-6 12-3 4-7 6-12 6h-210c13 11 26 22 38 35 125 28 228 117 243 180 7 22 5 46-5 66-9 21-26 38-47 47v0z m-81-86c15 6 30 8 46 6 1-1 4-2 1-13-3-13-30-43-74-71 11 25 19 51 25 78 1 0 1 0 2 0v0z m-95-330h-601c-51 0-121 16-136 52h873c-15-36-85-52-136-52z m-113 88h-394c-56 36-102 86-133 144-32 58-48 124-48 190v21c0 5 1 9 4 12 3 3 7 4 11 5h726c4-1 8-2 10-5 3-3 5-7 5-12v-21c0-66-17-132-48-190-32-58-77-108-133-144v0z m307 223c-10-39-77-105-170-140 6 9 11 17 17 26 68 31 127 82 136 118 4 10 3 21-1 31-4 10-12 18-21 22-18 6-38 6-56 0 1 6 2 12 2 18 20 6 41 5 61-2 13-6 24-17 30-30 6-14 6-29 2-43v0z m-502 262c29 43 41 79 33 109-14 54-88 66-105 136-9 38 2 80 32 126 3 4 7 6 11 7 5 1 10 0 13-2 4-3 7-7 8-12 1-4 0-9-3-13-24-37-33-70-27-97 14-56 88-67 105-137 10-40-3-86-38-137-3-4-7-6-12-7-4-1-9 0-13 3-3 3-6 7-7 11-1 5 0 10 3 13v0z m110 52c24 34 34 62 28 85-11 42-73 52-87 110-8 31 1 67 27 104 3 4 7 7 12 8 4 0 9-1 13-3 4-3 6-7 7-11 1-5 0-10-3-13-20-30-27-55-22-77 11-43 72-52 87-109 8-34-3-72-33-114-3-4-7-7-12-7-4-1-9 0-13 3-3 3-6 7-7 11 0 5 1 10 3 13v0z m-227-32c24 34 34 62 28 85-11 42-73 52-87 110-8 31 1 67 27 105 3 3 7 6 12 7 4 1 9 0 13-3 3-3 6-7 7-11 1-5 0-10-3-13-20-30-27-55-22-77 10-42 72-52 87-109 8-34-3-72-33-114-3-4-7-6-12-7-4-1-9 0-13 3-4 3-6 7-7 11-1 5 1 10 3 13v0z" horiz-adv-x="1016" />

<glyph glyph-name="coffee-2" unicode="&#xe802;" d="M171 458c-1-123 22-290 134-388 14-13 32-21 50-23 42-7 85-11 127-11 43 0 86 4 128 11 51 8 84 56 111 96 78 20 195 102 196 176 2 65-76 75-126 71 2 24 2 47 2 68 0 58-139 78-199 84-4 0-8-1-11-4-3-2-5-6-5-10-1-4 0-8 3-11 2-4 6-6 10-6 121-12 171-41 171-53 0-20-99-58-280-58-181 0-279 38-279 58 0 13 52 42 178 54 4 0 8 2 10 5 3 3 4 7 4 12-1 4-3 7-6 10-3 3-7 4-11 4-62-6-206-26-207-85v0z m706-115c39-51-67-132-135-160 25 56 41 115 46 175 42 4 74-2 89-15z m-395 26c109 0 225 14 279 46-4-110-31-242-122-322-10-8-22-14-34-16-81-13-164-13-245 0-13 2-25 8-34 16-92 80-118 212-123 322 55-32 170-46 279-46v0z m13-457c252-3 524 104 366 241-3 3-7 4-11 3-5-1-8-3-11-6-2-3-3-7-3-11 1-5 3-8 6-11 122-97-113-185-347-184-251-1-505 102-313 205 4 2 7 5 8 9 1 4 1 8-1 12-2 3-5 6-9 7-4 2-8 2-12 0-55-28-85-63-85-101 0-92 181-164 412-164v0z m-59 574c-3-3-4-7-3-11 1-4 3-8 6-11 3-2 8-3 12-2 4 0 7 2 10 5 17 24 40 79-2 116-31 28 0 74 2 76 2 4 3 8 3 12-1 4-3 7-7 10-3 2-7 3-11 3-4-1-8-3-10-6-18-25-40-80 2-118 31-28-1-72-2-74v0z m103 104c-2-4-3-8-2-12 0-4 2-8 6-10 3-2 7-4 11-3 4 1 8 3 10 6 18 24 40 78-2 116-31 28 1 74 3 76 2 3 3 7 2 11-1 4-3 8-6 10-4 3-8 4-12 3-4 0-7-3-10-6-17-24-39-80 2-117 31-28 0-73-2-74z" horiz-adv-x="1000" />

<glyph glyph-name="coffee-3" unicode="&#xe803;" d="M981 447h-161v41c0 11-8 20-19 20h-422c-11 0-20-9-20-20 0-11 9-19 20-19h402v-150c0-132-70-254-183-321h-375c-114 67-184 189-184 321v150h131c11 0 20 8 20 19 0 11-9 20-20 20h-150c-11 0-20-9-20-20v-169c0-74 20-146 57-210 26-42 59-80 97-111h-134c-11 0-20-8-20-19 0-71 58-129 129-129h609c71 0 129 58 129 129 0 11-9 19-19 19h-182c36 29 66 63 91 101h55c104 0 188 85 188 189v139c0 11-9 20-19 20z m-155-488c-9-40-45-70-88-70h-609c-43 0-79 30-88 70h177 385 223z m-6 360v11h63v-42c0-40-32-71-71-71h-5c9 33 13 67 13 102z m141-31c0-83-67-150-149-150h-33c6 13 11 26 16 40h17c61 0 110 49 110 110v61c0 11-9 20-20 20h-82v39h141v-120z m-532 454l-10 13c-15 18-15 45 0 63 6 9 5 21-4 28-8 7-20 5-27-3-26-33-26-80 0-113l10-12c20-25 20-59 0-84l-10-13c-7-8-5-20 3-27 4-3 8-4 12-4 6 0 12 2 16 7l10 13c31 39 31 93 0 132z m108-44l-10 13c-15 19-15 45 0 63 7 9 5 21-3 28-9 7-21 5-28-3-26-33-26-80 0-113l11-12c19-25 19-59 0-83l-11-14c-6-8-5-20 3-27 4-3 8-4 13-4 5 0 11 2 15 7l10 13c31 39 31 93 0 132z m-216 0l-11 13c-14 19-14 45 0 63 7 9 6 21-3 28-8 7-20 5-27-3-26-33-26-80 0-113l10-12c20-25 20-59 0-83l-10-14c-7-8-6-20 3-27 3-3 8-4 12-4 6 0 11 2 15 7l11 13c31 39 30 93 0 132z m-27-196c-4 4-9 6-14 6-5 0-10-2-14-6-4-4-6-9-6-14 0-5 2-10 6-14 4-3 9-5 14-5 5 0 10 2 14 5 3 4 5 9 5 14 0 5-2 10-5 14z m413-164c-11 0-19-8-19-19 0-73-30-144-81-196-8-7-8-20 0-27 4-4 9-6 14-6 5 0 10 2 14 6 58 59 92 140 92 223 0 11-9 19-20 19z m-133-268c-5 10-17 13-27 8l0-1c-9-5-13-17-7-26 3-6 10-10 17-10 3 0 6 1 9 2l1 1c9 5 12 17 7 26z" horiz-adv-x="1000" />

<glyph glyph-name="coffee-4" unicode="&#xe804;" d="M613 657c39 31 47 65 48 87 1 54-42 94-47 99-12 10-31 9-41-3-11-12-10-31 2-41 0-1 28-26 27-54 0-14-9-28-26-42-38-31-47-64-48-86-1-55 42-95 47-99 6-5 13-8 20-8 8 0 16 4 22 10 11 12 10 31-3 42-7 7-27 30-27 53 1 15 9 29 26 42z m-187 0c39 31 47 65 48 87 1 54-42 94-47 99-12 10-30 9-41-3-11-12-10-31 2-41 0-1 28-26 27-54 0-14-9-28-26-42-38-31-47-64-47-86-2-55 41-95 46-99 6-5 13-8 20-8 8 0 16 4 22 10 11 12 10 31-3 42-7 7-27 30-27 53 1 15 9 29 26 42z m422-288h-35v22c0 16-13 29-29 29h-752c-16 0-30-13-30-29v-156c0-137 76-258 191-326h-161c-16 0-30-13-30-30 0-16 14-29 30-29h752c16 0 29 13 29 29 0 17-13 30-29 30h-161c65 39 117 95 151 161h74c83 0 150 67 150 150 0 82-67 149-150 149z m-94-134c0-180-155-326-346-326-191 0-347 146-347 326v126h693v-126h0z m94-106h-51c11 34 16 69 16 106v75h35c50 0 91-40 91-90 0-51-41-91-91-91z m-609 528c39 31 47 65 48 87 1 54-42 94-47 99-12 10-30 9-41-3-11-12-10-31 2-41 1-1 28-26 27-54 0-14-9-28-26-42-38-31-47-64-47-86-2-55 41-95 46-99 6-5 13-8 20-8 8 0 16 4 22 10 11 12 10 31-3 42 0 0-27 26-26 53 0 15 8 29 25 42z" horiz-adv-x="1000" />

<glyph glyph-name="comment-1" unicode="&#xe805;" d="M884 850h-737c-81 0-147-66-147-147v-453c0-81 66-147 147-147h107v-233c0-8 5-15 13-18 2-2 5-2 7-2 6 0 11 2 14 6l256 247h340c81 0 147 66 147 147v453c0 81-66 147-147 147v0z m107-600c0-59-48-107-107-107h-348c-5 0-10-2-14-5l-227-221v206c0 11-9 20-21 20h-127c-59 0-107 48-107 107v453c0 59 48 107 107 107h737c59 0 107-48 107-107v-453h0z" horiz-adv-x="1031" />

<glyph glyph-name="comment-2" unicode="&#xe806;" d="M892 850h-784c-60 0-108-48-108-108v-574c0-60 48-108 108-108h248l83-165c14-29 36-45 61-45 25 0 47 16 61 45l83 165h248c60 0 108 48 108 108v574c0 60-48 108-108 108v0z m49-682c0-27-22-50-49-50h-266c-12 0-22-6-27-16l-90-181c-4-7-7-11-9-12-2 1-5 5-9 12l-90 181c-5 10-15 16-26 16h-267c-27 0-49 23-49 50v574c0 27 22 49 49 49h784c27 0 49-22 49-49v-574z" horiz-adv-x="1000" />

<glyph glyph-name="comment-3" unicode="&#xe807;" d="M1030 847h-949c-21 0-41-8-56-23-14-15-23-35-23-56v-633c0-21 9-41 23-56 15-15 35-23 56-23h298l146-183c4-4 8-8 14-11 5-2 11-4 17-4 6 0 12 2 17 4 5 3 10 7 14 11l146 183h297c21 0 41 8 56 23 15 15 23 35 23 56v633c0 21-8 41-23 56-15 15-35 23-56 23z m0-712h-316c-6 0-12-1-17-4-6-2-10-6-14-11l-127-159-127 159c-4 5-9 9-14 11-6 3-11 4-17 4h-317v633h949v-633z m-731 396h514c10 0 20 4 28 11 7 8 11 18 11 28 0 11-4 21-11 28-8 8-18 12-28 12h-514c-11 0-21-4-28-12-8-7-12-17-12-28 0-10 4-20 12-28 7-7 17-11 28-11v0z m0-238h356c10 0 20 5 28 12 7 7 11 17 11 28 0 10-4 20-11 28-8 7-18 11-28 11h-356c-11 0-21-4-28-11-8-8-12-18-12-28 0-11 4-21 12-28 7-7 17-12 28-12v0z" horiz-adv-x="1113" />

<glyph glyph-name="consultant" unicode="&#xe808;" d="M894 205c16 13 28 31 34 51 6 19 6 41-1 60-7 20-19 37-36 49-17 12-38 19-58 19-21 0-41-7-58-19-17-12-30-29-37-49-6-19-7-41-1-60 6-20 18-38 34-51-23-9-45-24-62-43l-9 90c-1 4-3 8-6 11-3 2-7 4-11 4h-17v50c0 33-10 65-28 93-19 27-46 49-76 61 16 13 28 30 34 50 6 20 5 41-2 61-6 20-19 37-36 49-17 12-37 18-58 18-21 0-41-6-58-18-17-12-29-29-36-49-7-20-7-41-2-61 6-20 18-37 35-50-31-12-58-34-76-61-19-28-29-60-29-93v-50h-17c-4 0-8-2-11-4-3-3-5-7-5-11l-9-90c-18 19-39 34-63 43 16 13 28 30 34 50 6 20 6 42-1 61-7 20-20 37-37 49-16 12-37 18-57 18-21 0-41-6-58-18-17-12-30-29-37-49-7-19-7-41-1-61 6-20 18-37 34-50-31-12-57-33-76-61-19-27-29-60-29-93v-183c0-5 2-9 5-12 3-3 8-5 12-5h964c5 0 9 2 12 5 3 3 5 7 5 12v183c0 33-10 66-29 93-19 28-45 49-76 61v0z m-128 79c0 13 4 26 11 36 8 11 18 20 30 25 12 5 26 6 38 4 13-3 25-9 35-18 9-10 15-22 18-34 2-13 1-27-4-39-5-12-14-22-25-30-10-7-23-11-37-11-17 0-34 7-47 20-12 12-19 29-19 47z m-332 266c0 13 3 26 11 36 7 11 17 20 30 25 12 5 25 6 38 4 13-3 25-9 34-18 9-10 16-22 18-35 3-12 2-26-4-38-5-12-13-22-24-30-11-7-24-11-37-11-18 0-34 7-47 19-12 13-19 30-19 48z m-67-233c0 35 14 69 39 94 25 25 59 39 94 39 35 0 69-14 94-39 25-25 39-59 39-94v-50h-29l12 81c1 2 1 4 0 7-1 2-2 4-3 6-2 2-4 3-6 4-2 1-5 2-7 2h-200c-2 0-4-1-7-2-2-1-4-2-5-4-2-2-3-4-4-6-1-3-1-5 0-7l12-81h-29v50z m214 16l-15-99h-131l-15 99h161z m-181-99l3-19c1-4 3-8 6-11 3-2 7-4 11-4h159c4 0 8 2 11 4 3 3 5 7 6 11l4 19h68l13-120 6-67-77-31c-3-1-5-3-7-6-2-2-3-6-3-9v-50c0-2 0-5 1-7 1-2 3-4 5-6 3-2 6-4 10-4h3l76 12 6-61h-402l6 61 76-11h3c4 0 7 1 10 4 2 1 4 3 5 5 1 2 1 5 1 7v50c0 3-1 7-3 9-1 3-4 5-7 6l-76 31 18 187h68z m-299 50c0 13 4 26 11 36 8 11 18 20 30 25 12 5 26 6 39 4 12-3 24-9 34-18 9-10 15-22 18-34 2-13 1-27-4-39-5-12-14-22-24-30-11-7-24-11-37-11-18 0-35 7-47 20-13 12-20 29-20 47z m-66-233c0 35 14 69 39 94 25 25 58 39 94 39 24 0 49-7 70-20 21-13 38-32 49-54l-5-50-48 19v38h-33v-50c0-3 1-6 3-9 2-3 4-5 7-6l156-62v-20l-188 29-30 59-29-15 33-66c1-3 3-5 5-6 2-2 4-3 7-3l107-17-6-66h-231v166z m930-166h-231l-6 66 107 17c3 0 5 1 7 3 2 1 4 3 5 6l34 66-30 15-29-59-189-29v20l156 62c3 1 6 3 7 6 2 3 3 6 3 9v50h-33v-38l-47-19-5 51c11 22 28 40 49 53 21 13 45 20 69 20 36 0 70-14 95-39 24-25 38-59 38-94v-166z m-947 598h91l45-60c2-2 4-4 6-5 2-1 5-1 8-1 2 0 5 0 7 1 2 1 4 3 6 5l45 60h91c5 0 9 2 12 5 3 3 5 7 5 12v332c0 5-2 9-5 12-3 3-7 5-12 5h-299c-4 0-9-2-12-5-3-3-5-7-5-12v-332c0-5 2-9 5-12 3-3 8-5 12-5z m17 332h266v-299h-84c-2 0-5 0-7-1-2-2-4-3-6-5l-36-49-37 49c-2 2-4 3-6 5-2 1-5 1-7 1h-83v299z m33-232h199v-33h-199v33z m0 66h199v-33h-199v33z m0 67h199v-34h-199v34z m166 66h33v-33h-33v33z m-100 0h67v-33h-67v33z m-66 0h33v-33h-33v33z m914 67h-299c-5 0-9-2-12-5-3-3-5-7-5-12v-332c0-5 2-9 5-12 3-3 7-5 12-5h91l45-60c2-2 4-4 6-5 2-1 5-1 7-1 3 0 6 0 8 1 2 1 4 3 6 5l45 60h91c5 0 9 2 12 5 3 3 5 7 5 12v332c0 5-2 9-5 12-3 3-7 5-12 5v0z m-17-333h-83c-2 0-5 0-7-1-2-2-4-3-6-5l-37-49-36 49c-2 2-4 3-6 5-2 1-5 1-7 1h-83v299h265v-299z m-232 266h199v-33h-199v33z m0-66h199v-34h-199v34z m0-67h199v-33h-199v33z m0-66h33v-33h-33v33z m66 0h67v-33h-67v33z m100 0h33v-33h-33v33z" horiz-adv-x="1000" />

<glyph glyph-name="consultation" unicode="&#xe809;" d="M500 592l119 98h155v160h-387v-160h113v-98z m-81 130v96h323v-96h-135l-75-62v62h-113z m33 64h32v-32h-32v32z m64 0h129v-32h-129v32z m161 0h33v-32h-33v32z m144-897l-13 130c54 8 95 54 95 110v208h-64v23c0 21-12 41-32 51 20 18 32 43 32 71v32c0 53-44 96-97 96-53 0-97-43-97-96v-32c0-42 27-77 64-91l-87-86h-90c-2 27-20 50-46 58l-67 19v28c20 18 33 43 33 72v32c0 53-44 96-97 96-53 0-97-43-97-96v-32c0-29 13-54 32-72v-28l-66-19c-27-8-47-33-47-62v-60h-64v-96h32v-256h-145v-32h1000v32h-179z m-144 256v74l115 113c8 8 13 19 14 31 0-1 1-2 1-3v-199c0-26-22-48-49-48h-129v32h48z m-48-128h82l13-128h-95v128z m115 0h32l13-128h-32l-13 128z m95 144v144h32v-176c0-44-36-80-81-80h-161v32h129c45 0 81 36 81 80z m-162 321v32c0 35 29 64 65 64 36 0 65-29 65-64v-32c0-36-29-64-65-64-36 0-65 28-65 64z m-41-209l107 107c4 4 8 5 13 5 10 0 18-8 18-17 0-5-2-10-5-13l-114-114h-171c-9 0-16 7-16 16 0 9 7 16 16 16h152z m-346 241c0 35 29 64 65 64 35 0 64-29 64-64v-32c0-36-29-64-64-64-36 0-65 28-65 64v32z m65-129c11 0 22 3 32 6v-17c-4-6-15-21-32-21-17 0-28 15-32 21v17c10-3 21-6 32-6z m-145-84c0 14 9 27 23 31l67 19c9-12 27-30 55-30 28 0 46 18 55 30l67-19c12-4 21-14 22-27h-15c-27 0-48-21-48-48 0-5 1-11 3-16h-229v60z m-65-92h500v-32h-500v32z m32-128h49v32h-49v32h420v-32h-339v-32h339v-192h-39l-32 64h-278l-32-64h-39v192z m345-192h-270l16 32h238l16-32z" horiz-adv-x="1000" />

<glyph glyph-name="conversations-1" unicode="&#xe80a;" d="M403 293h-184c-18 0-31 14-31 32 0 17 13 31 31 31h147c-8 19-15 38-20 59h-127c-18 0-31 14-31 31 0 17 13 32 31 32h118c-1 5-1 10-1 15 0 37 7 73 18 106h-179c-62 0-112-50-112-112v-324c0-58 44-106 100-112v-66c0-18 10-35 27-43 7-3 14-5 21-5 10 0 21 4 29 11l70 55c38 30 87 47 136 47h216c62 0 112 51 112 113v16c-33-11-69-18-106-18-108 0-204 52-265 132v0z m15-121h-199c-18 0-31 14-31 31 0 17 13 31 31 31h199c18 0 32-14 32-31 0-17-14-31-32-31z m250 591c-149 0-269-121-269-270 0-149 120-269 269-269 149 0 270 120 270 269 0 149-121 270-270 270v0z m0-443c-17 0-31 14-31 31 0 17 13 31 31 31h0c17 0 31-14 31-31 0-17-14-31-31-31z m31 144v-19c0-17-14-31-31-31-17 0-31 14-31 31v44c0 18 14 32 31 32 15 0 27 12 27 27 0 14-12 26-27 26-15 0-27-12-27-26 0-18-14-32-31-32-17 0-31 14-31 32 0 49 40 89 89 89 49 0 90-40 90-89 0-39-25-71-59-84z" horiz-adv-x="1000" />

<glyph glyph-name="conversations-2" unicode="&#xe80b;" d="M827 600h-22v-170c0-126-102-228-228-228h-326v-22c0-93 76-169 170-169h349l179-150c5-5 12-7 19-7 16 0 29 13 29 29v547c0 94-76 170-170 170v0z m-80-170v250c0 94-76 170-170 170h-406c-94 0-170-76-170-170v-547c0-16 13-29 29-29 7 0 14 3 19 7l179 149h349c94 0 170 77 170 170v0z m-373-45c-16 0-29 14-29 30 0 16 13 29 29 29 16 0 29-13 29-29 0-16-13-30-29-30z m29 130v-7c0-16-13-29-29-29-16 0-29 13-29 29v32c0 16 13 29 29 29 27 0 49 22 49 49 0 27-22 49-49 49-13 0-25-5-35-15-9-9-14-21-14-34 0-16-13-29-29-29-16 0-29 13-29 29v0c0 28 11 55 31 76 20 20 47 31 76 31 59 0 107-48 107-107 0-49-33-91-78-103z" horiz-adv-x="1000" />

<glyph glyph-name="correct-1" unicode="&#xe80c;" d="M1323 832c31-27 33-74 6-104l-762-854c-27-30-74-32-103-4l-441 419c-28 26-31 70-7 99 26 33 75 38 106 10l342-311c29-27 75-25 102 5l656 734c26 30 71 32 101 6v0z" horiz-adv-x="1348" />

<glyph glyph-name="credit-card" unicode="&#xe80d;" d="M994 432c12 31 6 68-20 93l-299 299c-34 35-90 35-124 0l-336-336h-127c-49 0-88-39-88-88v-462c0-49 39-88 88-88h824c49 0 88 39 88 88v462c0 11-2 22-6 32v0z m-63 54c-6 1-13 2-19 2h-63l40 40 42-42z m-84 83l-81-81h-83l123 123 41-42z m-255 214c6 6 13 8 21 8 8 0 15-2 21-8l130-131-164-164h-303l295 295z m349-845c0-16-13-29-29-29h-824c-16 0-29 13-29 29v462c0 16 13 29 29 29h824c16 0 29-13 29-29v-462z m-826 118h137v-59h-137v59z m211 0h137v-59h-137v59z m211 0h137v-59h-137v59z m211 0h137v-59h-137v59z m-482 295h-100c-27 0-49-22-49-49v-78c0-27 22-49 49-49h100c27 0 49 22 49 49v78c0 27-22 49-49 49z m-10-117h-80v59h80v-59z" horiz-adv-x="1000" />

<glyph glyph-name="currect" unicode="&#xe80e;" d="M883-150h-766c-64 0-117 53-117 117v766c0 64 53 117 117 117h766c64 0 117-53 117-117v-766c0-64-53-117-117-117z m-766 922c-21 0-39-18-39-39v-766c0-21 18-39 39-39h766c21 0 39 18 39 39v766c0 21-18 39-39 39h-766z m725-218l-59 53-361-404-209 199-54-56 268-255 415 463z" horiz-adv-x="1000" />

<glyph glyph-name="currency" unicode="&#xe80f;" d="M700 493h20v-46h-41c-4 0-9-2-12-6-4-3-6-8-6-12 0-5 2-10 6-13 3-4 8-6 12-6h41v-9c0-5 2-9 5-13 3-3 8-5 13-5 5 0 9 2 13 5 3 4 5 8 5 13v9h13c8 0 16 2 23 5 7 3 14 7 20 12 5 6 10 13 13 20 3 7 4 15 4 23 0 8-1 16-4 23-3 7-8 14-13 19-6 6-13 10-20 13-7 3-15 4-23 4h-13v33h27c4 0 9 2 12 5 4 4 6 8 6 13 0 5-2 9-6 13-3 3-8 5-12 5h-27v10c0 4-2 9-5 12-4 4-8 6-13 6-5 0-10-2-13-6-3-3-5-8-5-12v-10h-20c-14 0-27-6-36-16-10-10-15-23-15-36 0-14 5-27 15-37 9-10 22-16 36-16v0z m69 0c3 0 6 0 9-1 3-2 6-3 8-5 2-3 4-5 5-8 1-3 2-6 2-9 0-3-1-6-2-9-1-3-3-6-5-8-2-2-5-4-8-5-3-1-6-1-9-1h-13v46h13z m-69 69h20v-33h-20c-4 0-8 2-11 5-3 3-5 7-5 12 0 4 2 8 5 11 3 3 7 5 11 5v0z m290-372c-26 36-107 56-194 62 66 14 124 54 161 110 38 57 51 126 38 193-13 66-51 125-107 163-56 39-125 54-192 42-41 48-98 79-161 87-62 9-126-6-178-41-53-34-91-87-107-148-16-61-10-126 18-183-3 0-6 0-9 0-105 0-217-20-249-63-3-2-6-4-7-7-2-3-3-6-3-9v-456c0-62 134-90 259-90 99 0 203 18 242 55 42-36 144-53 240-53 125 0 259 29 259 90v233c0 3-1 6-3 9-1 2-4 5-7 6v0z m-26-128v-7c0-17-76-54-223-54-145 0-221 36-223 53v61c49-28 138-41 223-41 85 0 175 13 223 41v-53z m-446 214v57c8 0 16 1 24 3 36-43 85-72 139-84-56-2-112-15-163-39v63z m-36 60v-60c0-16-76-54-223-54-147 0-223 38-223 54v60c49-28 138-41 223-41 85 0 175 13 223 41l0 0z m-223-150c85 0 175 13 223 41v-52c0 0 0 0 0 0v-12c-2-16-78-53-223-53-147 0-223 38-223 54v63c49-28 138-41 223-41v0z m-223-126v55c49-28 138-41 223-41 85 0 174 13 223 41v-64c-2-16-77-53-223-53-147 0-223 38-223 54l0 8z m928 104c0-16-76-54-223-54-145 0-221 37-223 53v1c2 17 78 54 223 54 147 0 223-38 223-54v0z m-3 340c0-46-14-91-41-129-27-37-64-66-108-81-43-15-91-17-135-4-44 12-84 39-113 75 0 0-1 1-1 2-22 27-37 60-44 95-7 35-5 71 5 105 10 34 28 65 53 91 24 26 55 45 88 57 34 12 70 15 105 10 35-5 68-19 97-39 29-21 53-48 69-80 16-31 25-66 25-102v0z m-684 87c0 44 13 87 37 123 25 37 59 66 100 83 40 17 85 21 128 13 43-8 83-29 114-60-64-21-117-67-148-127-31-60-38-129-18-194-37 25-106 40-179 45-22 35-34 75-34 117v0z m-18-152c147 0 223-38 223-54 0-16-76-54-223-54-147 0-223 38-223 54 0 16 76 54 223 54v0z m0-553c-147 0-223 38-223 54v63c49-28 138-41 223-41 85 0 174 13 223 41v-61c0 0 0 0 0-1v-1c0-16-76-54-223-54v0z m482 3c-145 0-221 36-223 53v63c49-28 138-41 223-41 85 0 175 14 223 42v-64c0-16-76-53-223-53v0z" horiz-adv-x="1006" />

<glyph glyph-name="customer-service-1" unicode="&#xe810;" d="M864 494h-215v224c0 33-13 63-36 86-22 23-53 36-85 36h-392c-67 0-121-55-121-122v-260c0-67 54-122 121-122h10v-74c0-23 13-44 34-52 7-3 14-4 21-4 15 0 29 6 40 16l110 110v-220c0-67 54-121 121-121h173l114-114c11-11 25-17 40-17 7 0 14 2 21 4 21 9 35 29 35 52v75h9c67 0 121 54 121 121v261c0 67-54 121-121 121z m-518-111c-6 0-12-2-17-7l-121-121c-4-3-8-3-10-2-2 1-6 3-6 9v98c0 13-10 23-23 23h-33c-41 0-74 33-74 75v260c0 41 33 75 74 75h392c20 0 38-8 52-22 14-14 22-33 22-53v-260c0-41-33-75-74-75h-182v0z m592-271c0-41-33-74-74-74h-33c-13 0-23-11-23-24v-98c0-5-4-7-6-8-2-1-6-2-10 2l-121 121c-5 4-11 7-17 7h-182c-41 0-74 33-74 74v224h130c63 0 115 49 121 112h215c41 0 74-34 74-75v-261h0z m-415 165c-19 0-35-15-35-34 0-19 16-35 35-35 19 0 34 16 34 35 0 19-15 34-34 34z m145 0c-19 0-35-15-35-34 0-19 16-35 35-35 19 0 35 16 35 35 0 19-16 34-35 34z m145 0c-19 0-35-15-35-34 0-19 16-35 35-35 19 0 35 16 35 35 0 19-16 34-35 34z m-489 232c-13 0-24-11-24-25 0-13 10-25 24-25 14 0 25 12 25 25 0 14-11 25-25 25z m5 208c-50 0-73-30-73-50 0-14 12-21 22-21 20 0 12 28 50 28 18 0 33-8 33-25 0-20-20-31-33-41-10-10-24-25-24-57 0-19 5-24 20-24 18 0 22 8 22 15 0 19 0 30 20 46 10 8 42 33 42 68 0 34-32 61-79 61v0z" horiz-adv-x="1000" />

<glyph glyph-name="date" unicode="&#xe811;" d="M949 847h-99v-99c0-20-17-34-33-34-17 0-34 14-34 34v99h-530v-99c0-20-16-34-33-34-16 0-33 14-33 34v99h-99c-50 0-86-43-86-99v-120h1060v120c0 56-60 99-113 99z m-947-288v-607c0-59 36-99 89-99h861c53 0 113 43 113 99v607h-1063z m294-557h-79c-13 0-27 10-27 27v83c0 13 10 26 27 26h83c13 0 26-10 26-26v-83c-3-17-13-27-30-27z m0 298h-79c-13 0-27 10-27 27v83c0 13 10 26 27 26h83c13 0 26-10 26-26v-83c-3-17-13-27-30-27z m265-298h-82c-14 0-27 10-27 27v83c0 13 10 26 27 26h82c14 0 27-10 27-26v-83c0-17-10-27-27-27z m0 298h-82c-14 0-27 10-27 27v83c0 13 10 26 27 26h82c14 0 27-10 27-26v-83c0-17-10-27-27-27z m265-298h-82c-14 0-27 10-27 27v83c0 13 10 26 27 26h82c14 0 27-10 27-26v-83c0-17-10-27-27-27z m0 298h-82c-14 0-27 10-27 27v83c0 13 10 26 27 26h82c14 0 27-10 27-26v-83c0-17-10-27-27-27z" horiz-adv-x="1067" />

<glyph glyph-name="design-1" unicode="&#xe812;" d="M731 329l25 25c0 0 0 0 0 0 0 0 0 0 0 0l86 86c0 0 0 0 0 0 0 0 0 0 0 0l87 87c0 0 0 0 0 0 0 0 0 0 0 0l47 47c16 16 24 36 24 58 0 21-8 42-24 57l-137 137c-15 16-36 24-57 24-22 0-42-8-58-24l-245-245-166 167c-28 27-63 47-102 57l-174 44c-10 3-21 0-28-8-8-7-11-17-8-27l44-175c10-39 30-74 58-101l166-167-245-245c-16-16-24-36-24-58 0-21 8-41 24-57l137-137c16-16 36-24 57-24 22 0 42 8 58 24l134 134c0 0 0 0 0 0 0 0 0 0 0 0l111 111 226-226c29-29 67-43 105-43 38 0 76 14 105 43 57 58 57 153 0 210l-226 226z m-629 324l-32 127 127-32c28-7 54-21 74-42l23-23-127-127-23 23c-20 20-35 46-42 74v0z m107-139l127 128 102-102-127-128-102 102z m9-605c-5 0-11 2-15 6l-138 138c-4 4-6 10-6 15 0 6 2 12 6 16l701 701c4 4 10 6 16 6 6 0 11-2 15-6l138-138c4-4 6-9 6-15 0-6-2-12-6-16l-27-27-89 89c-12 12-30 12-42 0-11-11-11-30 0-41l90-89-46-46-46 46c-11 12-30 12-41 0-11-11-11-30 0-41l46-46-45-45-90 89c-11 12-30 12-41 0-11-11-11-30 0-41l89-90-45-45-46 46c-11 12-30 12-41 0-12-11-12-30 0-41l46-46-45-45-89 90c-11 11-30 11-41 0-12-12-12-30 0-42l89-89-45-45-46 46c-12 11-30 11-42 0-11-12-11-30 0-42l46-46-45-45-89 89c-12 12-30 12-42 0-11-11-11-30 0-41l90-89-45-46-47 47c-11 11-30 11-41 0-11-12-11-31 0-42l46-46-27-27c-4-4-10-6-16-6v0z m365 272c0 0 0 0 0 0 0 0 0 0 0 0l86 86c0 0 0 0 0 0 0 0 0 0 0 0l21 21 124-125-127-127-125 125 21 20z m332-246c-35-35-92-35-127 0l-60 60 127 127 60-60c35-35 35-92 0-127v0z" horiz-adv-x="1000" />

<glyph glyph-name="done-1" unicode="&#xe813;" d="M947 819h-366c-11 0-20-9-20-20 0-11 9-19 20-19h366c13 0 24-11 24-24v-518h-931v518c0 13 10 24 24 24h343c11 0 20 8 20 19 0 11-9 20-20 20h-343c-35 0-64-29-64-63v-626c0-35 29-63 64-63h323l-13-104c-2-24-23-43-48-43 0 0 0 0 0 0 0 0-1 0-1 0 0 0-1 0-1 0h-27c-10 0-19-8-19-19 0-11 9-20 19-20h416c11 0 20 9 20 20 0 11-9 19-20 19h-27c0 0 0 0 0 0-1 0-1 0-1 0 0 0 0 0 0 0-25 0-46 19-49 43 0 0 0 0 0 0l-12 104h323c35 0 63 28 63 63v626c0 34-28 63-63 63v0z m-350-860c2-14 7-27 14-39h-212c8 12 13 25 15 39l12 108h158l13-108z m374 171c0-13-11-24-24-24h-883c-14 0-24 11-24 24v69h931v-69z m-113 237c35 35 55 82 55 132 0 103-85 187-189 187-104 0-188-84-188-187 0-103 84-187 188-187 51 0 98 20 134 55z m15 125c-1-30-12-59-30-83l-99 98v138c73-9 130-73 130-146 0-2 0-5-1-7v0z m-298 7c0 75 57 137 130 146v-146c0-5 2-10 5-14l105-103c-26-20-57-31-91-31-82 0-149 66-149 148v0z m-254 0v-147h-55v294c0 11-9 20-20 20h-97c-11 0-20-9-20-20v-294h-15c-11 0-19-9-19-19 0-11 8-20 19-20h357c11 0 20 9 20 20 0 10-9 19-20 19h-13v147c0 11-9 19-20 19h-97c-11 0-20-8-20-19v0z m-153-147v275h58v-275h-58z m193 127h58v-127h-58v127z m116 313c4-10 16-15 26-11 10 4 14 16 10 26-4 9-16 14-25 10-10-4-15-15-11-25z" horiz-adv-x="1010" />

<glyph glyph-name="dot-1" unicode="&#xe814;" d="M394 345c-1 2-2 4-2 6 0 5 3 8 8 8l541 0c5 0 9-3 9-8 0-4-4-8-9-8l-541 0c-2 0-4 1-6 2z m-343 0c-2 2-3 4-3 6 0 5 3 8 8 8l20 0c4 0 8-3 8-8 0-4-4-8-8-8l-20 0c-2 0-4 1-5 2z m58 0c-1 2-3 4-3 6 0 5 4 8 9 8l39 0c4 0 8-3 8-8 0-4-4-8-8-8l-39 0c-2 0-4 1-6 2z m79 0c-2 2-3 4-3 6 0 5 4 8 8 8l39 0c5 0 8-3 8-8 0-4-3-8-8-8l-39 0c-2 0-4 1-5 2z m79 0c-2 2-3 4-3 6 0 5 3 8 8 8l39 0c5 0 8-3 8-8 0-4-3-8-8-8l-39 0c-2 0-4 1-5 2z m78 0c-1 2-2 4-2 6 0 5 3 8 8 8l19 0c5 0 8-3 8-8 0-4-3-8-8-8l-19 0c-3 0-4 1-6 2z m619 29c13-13 13-33 0-45-12-13-32-13-45 0-12 12-12 32 0 45 13 12 33 12 45 0z m-44-45c-13 13-13 33 0 45 12 13 32 13 45 0m-51-51c-8 8-12 18-12 28 0 11 4 21 12 28 7 8 18 12 28 12 11 0 21-4 28-12 7-7 12-18 12-28 0-11-5-20-12-28-7-7-18-11-28-11-11-1-20 3-28 11z m45 45c-5 4-11 7-17 7-6 0-12-3-16-7-4-4-7-10-7-16 0-7 3-12 7-17 4-4 10-7 16-7 6 0 12 3 17 7 4 5 7 10 7 17-1 6-3 11-7 16z m-880 5c12-12 12-32 0-45-13-12-33-12-45 0-13 13-13 33 0 45 12 13 32 13 45 0z m-45-44c-13 12-13 32 0 45 12 12 33 12 45 0m-51-51c-7 7-12 18-12 28 0 11 5 21 12 28 8 7 18 12 28 12 11 0 21-5 28-12 8-7 12-18 12-28 0-11-4-21-12-28-7-8-18-12-28-12-10 1-20 4-28 12z m45 45c-4 4-10 7-16 7-7 0-13-3-17-7-4-5-7-10-7-17 0-6 3-12 7-16 4-4 10-7 17-7 6 0 12 3 16 7 4 4 7 10 7 16 0 7-3 12-7 17z" horiz-adv-x="1000" />

<glyph glyph-name="download" unicode="&#xe815;" d="M469 78c4-4 10-8 16-11 6-2 13-4 20-4 7 0 13 2 19 4 7 3 12 7 17 11l193 193c10 10 15 23 15 37 0 13-5 26-15 36-10 9-23 15-36 15-14 0-27-6-36-15l-106-106v559c0 13-5 26-15 36-10 10-23 15-36 15-14 0-27-5-36-15-10-10-15-23-15-36v-559l-106 106c-10 9-23 15-36 15-14 0-27-6-36-15-10-10-15-23-15-36 0-14 5-27 15-37l193-193z m479 326c-13 0-26-5-36-14-9-10-15-23-15-37v-392h-784v392c0 14-6 27-15 37-10 9-23 14-37 14-13 0-26-5-36-14-9-10-15-23-15-37v-409c0-23 9-44 25-60 16-16 38-25 61-25h818c23 0 44 9 60 25 16 16 25 37 25 60v409c0 14-5 27-15 37-9 9-22 14-36 14z" horiz-adv-x="1000" />

<glyph glyph-name="download-1" unicode="&#xe816;" d="M1071 350c0-129-105-233-234-233h-168c-18 0-33 15-33 33 0 18 15 33 33 33h168c92 0 167 75 167 167 0 92-75 167-167 167h-34c-18 0-33 15-33 33 0 129-105 233-235 233-129 0-234-104-234-233 0-18-15-33-33-33h-34c-92 0-167-75-167-167 0-92 75-167 167-167h168c18 0 33-15 33-33 0-18-15-33-33-33h-168c-129 0-234 104-234 233 0 129 105 233 234 233h2c17 150 145 267 299 267 155 0 283-117 300-267h2c129 0 234-104 234-233z m-425-310l-77-76v419c0 19-15 34-34 34-18 0-33-15-33-34v-419l-77 76c-13 13-34 13-47 0-13-13-13-34 0-47l134-133c6-7 15-10 23-10 9 0 18 3 24 10l134 133c13 13 13 34 0 47-13 13-34 13-47 0z" horiz-adv-x="1071" />

<glyph glyph-name="email" unicode="&#xe817;" d="M1294 848h-1166c-69 0-125-56-125-125v-746c0-69 56-124 125-124h1166c68 0 124 55 124 124v746c0 69-55 125-124 125z m-18-83c-25-25-462-460-477-475-24-24-55-37-88-37-33 0-65 13-88 37-10 10-443 440-478 475h1131z m-1190-771v712l358-356-358-356z m59-58l358 356 61-61c39-39 91-61 147-61 55 0 107 22 146 61l61 61 358-356h-1131z m1190 58l-358 356 358 356v-712z" horiz-adv-x="1432" />

<glyph glyph-name="email-1" unicode="&#xe818;" d="M519 287c-37 0-74 6-110 17-56 19-98 67-109 126-13 60 10 123 62 174 5 5 11 10 17 15 54 45 126 61 193 42 64-21 109-80 111-148 3-39-10-78-35-108-20-24-51-36-82-30-13 3-24 10-31 21-6 11-7 23-4 35 15 55 29 138 29 139 1 6 6 11 11 13 6 2 12 1 16-3 5-4 7-10 6-16-1-3-15-85-30-141-1-3-1-7 1-10 2-3 6-5 9-6 19-3 38 5 50 20 20 23 29 54 27 84-1 54-37 102-88 118-57 16-117 3-162-35-5-5-10-9-15-14-26-25-67-77-53-144 9-46 43-85 88-100 77-25 189-28 248 45 5 7 16 8 23 3 7-6 8-16 2-24-43-54-109-73-174-73z m-57 86c-17 0-34 5-48 16-32 26-33 70-24 100 3 10 7 20 12 29 13 25 32 45 57 59 31 16 68 10 92-15 12-13 21-29 27-45 2-9-2-18-11-21-8-3-17 1-21 9-4 13-10 24-19 34-14 14-36 18-53 8-19-10-34-26-43-45-4-7-7-15-9-23-7-21-5-50 13-64 19-16 52-9 70 7 14 12 26 27 35 42 3 6 9 9 15 9 6-1 11-4 14-9 3-6 3-12-1-17-11-19-25-36-41-50-18-15-41-24-65-24v0z m484-517h-895c-27 0-50 22-50 50v613c0 6 4 12 10 15 6 2 13 2 18-3l406-337c37-31 90-31 127 0l406 337c5 5 12 5 18 3 6-3 9-9 9-15v-613c0-28-22-50-49-50v0z m-911 627v-577c0-9 7-17 16-17h895c9 0 16 8 16 17v577l-379-315c-49-40-120-40-169 0l-379 315z m-17 19c-7 0-14 5-16 12-2 7 1 14 6 18l150 106c7 5 17 3 22-4 6-8 4-18-3-23l-149-106c-3-2-7-3-10-3v0z m961 0c-4 0-7 1-10 3l-149 106c-7 5-9 15-4 23 5 7 16 9 23 4l149-106c6-4 9-11 6-18-2-7-8-12-15-12v0z m-328 232c-3 0-6 1-9 3l-79 56c-37 31-91 32-128 1l-80-57c-5-3-11-4-17-1-5 2-9 7-9 13-1 6 2 12 7 15l79 56c49 40 119 40 168 0l78-56c6-4 8-12 6-18-2-7-8-12-16-12v0z m-622-869c-7 0-13 4-16 11-2 7 0 14 5 18l378 314c5 4 11 5 17 3 5-2 9-7 10-12 1-6-1-12-6-16l-378-314c-3-3-6-4-10-4v0z m939 0c-4 0-8 1-11 4l-378 314c-4 4-7 10-6 16 1 5 6 10 11 12 6 2 12 1 17-3l377-314c6-4 8-11 5-18-2-7-8-11-15-11v0z m-138 513c-10 0-17 8-17 17v339c0 0-1 0-2 0h-626c0 0-1 0-2-1l1-338c0-9-8-17-17-17-9 0-16 8-16 17v339c0 19 16 34 34 33h626c19 1 35-14 35-33v-339c0-9-7-17-16-17z" horiz-adv-x="1000" />

<glyph glyph-name="employe" unicode="&#xe819;" d="M95 312c-26-11-48-30-63-54-16-23-24-51-24-80v-304c0-5 1-9 4-12 3-3 7-4 12-4h698c4 0 8 1 11 4 3 3 5 7 5 12v31c27 0 53 6 78 17 25 11 47 27 64 47 18 20 32 44 40 69 8 26 11 53 8 80-3 26-12 52-26 75-13 23-32 43-54 59-22 15-47 26-73 31-27 5-54 5-80-1-13 13-28 23-45 30l-182 80v42c18 16 31 36 39 59h9c14 0 29 5 40 15 12 9 19 22 22 37 3 14 0 29-7 42-7 13-19 23-33 29 6 18 9 36 9 55v44c0 34-13 66-37 90-24 24-56 37-90 37h-111c-14 0-28-5-39-14-11-9-19-21-23-35-14-3-26-11-35-22-9-12-14-26-14-40v-32c0-28 5-55 14-82-15-4-27-14-35-26-9-13-12-29-10-44 2-15 10-29 21-39 12-10 27-15 42-15h8c8-23 22-43 40-59v-42l-183-80z m250 20l-48-38-35 57 30 13 53-32z m108 32l30-13-35-57-47 38 52 32z m-58-109h-44l-15 29 37 30 37-30-15-29z m-92 3l8 6 14-28-12-214c-38 93-61 192-66 293l33-53c1-2 3-3 5-5 1-1 4-2 6-2 1 0 2 0 2 0 4 0 8 1 10 3z m53-35h34l14-263c-10-19-20-38-31-56-11 18-22 37-32 56l15 263z m76-201l-11 214 14 28 7-6c3-2 7-3 10-3 1 0 2 0 3 0 2 0 4 1 6 2 2 2 3 3 5 5l33 53c-6-101-28-200-67-293z m-393 156c0 23 7 44 19 63 12 19 30 33 50 42l107 47c5-155 49-307 129-440h-178v174h-31v-174h-96v288z m667-288h-95v64c27-24 60-40 95-46v-18z m191 206c0-31-10-62-27-88-18-26-42-47-71-59-29-12-61-15-92-9-31 6-59 21-81 44-23 22-38 50-44 81-6 31-3 63 9 92 12 29 33 54 59 71 26 17 57 27 88 27 42 0 82-17 112-47 30-30 47-70 47-112z m-237 174c-25-11-47-28-66-49-18-21-31-45-39-72-8-26-10-54-5-82 4-27 14-53 29-76v-101h-178c80 133 125 285 130 440l106-47c9-3 16-8 23-13z m-144 255h-1c0 5 1 10 1 16v47c8 0 16-3 22-9 6-6 9-14 9-23 0-8-3-16-9-22-6-6-14-9-22-9z m-286 0c-8 0-17 3-23 9-5 6-9 14-9 22 0 9 4 17 9 23 6 6 15 9 23 9v-47c0-6 0-11 1-16h-1z m6 124c-4 16-6 33-6 50v32c0 8 3 17 9 23 6 5 14 9 23 9 4 0 8 1 11 4 3 3 5 7 5 12 0 8 3 16 9 22 6 6 14 9 22 9h111c26 0 50-10 68-28 18-17 28-42 28-67v-44c0-9-1-18-3-27-1 2-3 4-6 6-2 1-5 2-7 2h-13c-71 0-141 21-201 61-1 1-3 1-5 2-2 0-5 0-7 0-2-1-4-1-5-3-2-1-4-2-5-4l-5-8c-10-16-18-33-23-51z m26-108v63c0 26 7 51 20 73 61-37 131-57 202-57v-79c0-30-12-58-33-79-20-21-49-33-78-33-30 0-58 12-79 33-21 21-32 49-32 79z m111-143c22 0 44 5 63 15v-22l-63-38-64 38v22c20-10 42-15 64-15z m227-329l95-95c3-3 7-5 11-5 4 0 8 2 11 5l159 158c3 3 5 7 5 12 0 4-2 8-5 11l-47 48c-3 2-7 4-12 4-4 0-8-2-11-4l-100-100-36 36c-3 3-7 5-11 5-5 0-9-2-12-5l-47-48c-3-3-5-7-5-11 0-4 2-8 5-11z m59 36l36-36c3-3 7-5 11-5 4 0 8 2 11 5l100 100 25-25-136-137-73 73 26 25z" horiz-adv-x="936" />

<glyph glyph-name="facbook" unicode="&#xe81a;" d="M334-127v438h147l22 171h-169v109c0 49 13 83 84 83l91 0v153c-16 2-70 6-132 6-130 0-220-79-220-225v-126h-147v-171h147v-438h177z" horiz-adv-x="514" />

<glyph glyph-name="fdf-1" unicode="&#xe81b;" d="M758 588l-204 58-59 204h-408c-48 0-87-39-87-87v-820c0-49 39-88 87-88h583c49 0 88 39 88 88v645z m0 0v-645c0-49-39-88-88-88h-291v995h116l59-204 204-58z m0 0h-204c-32 0-59 26-59 58v204c8 0 16-3 21-9l233-233c6-5 9-13 9-20z m-204-206h-350c-16 0-29 13-29 29 0 16 13 29 29 29h350c16 0 29-13 29-29 0-16-13-29-29-29z m0-117h-350c-16 0-29 13-29 29 0 17 13 30 29 30h350c16 0 29-13 29-30 0-16-13-29-29-29z m0-116h-350c-16 0-29 13-29 29 0 16 13 29 29 29h350c16 0 29-13 29-29 0-16-13-29-29-29z m-117-117h-233c-16 0-29 13-29 29 0 16 13 29 29 29h233c16 0 29-13 29-29 0-16-13-29-29-29z m-58 0h58c16 0 29 13 29 29 0 16-13 29-29 29h-58v-58z m0 117h175c16 0 29 13 29 29 0 16-13 29-29 29h-175v-58z m0 116h175c16 0 29 13 29 29 0 17-13 30-29 30h-175v-59z m0 117h175c16 0 29 13 29 29 0 16-13 29-29 29h-175v-58z" horiz-adv-x="763" />

<glyph glyph-name="fdf-2" unicode="&#xe81c;" d="M740 612l-230 231h-468c-21 0-38-17-38-37v-661h736v467z m-230 37c0-20 16-37 37-37h193l-230 231v-194z m-505-503v-250c0-21 16-38 37-38h661c21 0 37 17 37 38v250h-735z m179 42c-12 0-24 4-34 13-18 15-19 31-17 42 8 50 101 95 155 118 29 73 54 159 70 224-31 67-42 115-33 142 5 13 15 22 29 25l2 0 2 0c1 0 15-2 26-17 15-20 18-52 10-95-2-13-6-31-11-52 29-60 69-126 102-171 27 4 53 5 76 3 41-5 50-23 51-33 2-15-9-31-28-39-27-12-70-9-105 37-2 2-3 4-5 6-45-7-98-22-151-42-6-2-11-4-17-6-36-89-72-140-105-152-6-2-12-3-17-3v0z m91 142c-77-35-115-69-119-91-1-5-1-12 9-20 9-7 18-9 28-6 27 10 55 56 82 117v0z m226 65c27-31 56-33 74-26 9 4 14 11 14 14-1 4-9 11-31 13-16 2-35 1-57-1v0z m-127 158c-11-46-28-101-46-154-4-9-7-18-10-26 42 15 93 30 141 39-26 38-58 89-85 141v0z m-17 175c-5-2-7-5-9-10-7-18 2-53 19-95 2 8 3 14 4 21 9 48 1 69-5 77-4 4-7 6-9 7z m191-711h-45v45h45c8 0 15 7 15 15 0 9-7 15-15 15h-60c-8 0-15-6-15-15v-150c0-9 7-15 15-15 9 0 15 6 15 15v60h45c8 0 15 7 15 15 0 8-7 15-15 15v0z m-320 75h-31c-8 0-15-7-15-15v-150c0-9 7-15 15-15 9 0 15 6 15 15v60h16c29 0 53 23 53 53 0 29-24 52-53 52z m0-75h-16v45h16c12 0 22-10 22-22 0-13-10-23-22-23z m130 75h-40c-8 0-15-7-15-15v-150c0-9 7-15 15-15h40c50 0 90 40 90 90 0 50-40 90-90 90v0z m0-150h-25v120h25c33 0 60-27 60-60 0-33-27-60-60-60v0z" horiz-adv-x="741" />

<glyph glyph-name="fdf-3" unicode="&#xe81d;" d="M954 698l-140 139c-9 8-20 13-33 13h-588c-25 0-46-21-46-46v-455h-33c-34 0-62-28-62-62v-281c0-34 28-62 62-62h491c25 0 46 21 46 46v219c0 25-21 46-46 46h-491c-18 0-32 15-32 32 0 18 14 33 32 33h33v-17c0-8 7-15 15-15 8 0 15 7 15 15v501c0 9 7 17 16 17h571v-142c0-17 14-30 30-30h144v-753c0-9-8-17-17-17h-728c-9 0-16 8-16 17 0 8-7 15-15 15-8 0-15-7-15-15 0-25 21-46 46-46h728c26 0 46 21 46 46v770c0 12-4 24-13 32v0z m-840-472h491c9 0 16-8 16-17v-219c0-9-7-17-16-17h-491c-18 0-32 15-32 33v229c9-6 20-9 32-9z m679 453v137l140-138h-139c0 0-1 0-1 1z m-322-656c9 0 15 6 15 14v49h32c8 0 15 7 15 15 0 8-7 14-15 14h-32v32h36c8 0 15 7 15 15 0 8-7 14-15 14h-51c-8 0-14-6-14-14v-125c0-8 6-14 14-14v0z m-155 5c3-2 6-4 10-4h0c1 0 26 0 36 0 37 1 63 33 63 76 0 45-26 75-64 75h-35c-4 0-8-2-10-4-3-3-5-7-5-11v0 0-119c0-1 0-2 0-3 1-4 2-7 5-10z m45 118c25 0 35-24 35-46 0-32-18-46-34-46-5 0-14 0-21-1 0 15 0 78 0 93h20z m-168-124c8 0 15 7 15 15v40c7 0 15 0 20 0 28 0 51 22 51 50 0 27-23 50-51 50h-35c-4 0-8-2-11-4-2-3-4-7-4-11h0v-125c0-8 7-15 15-15z m35 126c12 0 22-10 22-21 0-11-10-21-22-21-5 0-13 0-20 0 0 8 0 34 0 42h20v0z m242 277c-36-11-74-27-93-47-17-17-20-36-9-54 8-11 18-17 30-17 5 0 9 1 14 2 18 7 36 26 58 58 7 10 14 21 20 34 3 1 6 1 8 2 42 12 89 20 131 23 25-24 51-43 73-48 25-5 44 6 52 30 5 15 0 28-15 37-14 9-40 13-75 13-8-1-16-1-24-1-16 16-33 35-49 57-12 17-23 33-32 49 1 4 2 7 2 10 11 37 14 66 11 85-4 27-22 31-29 31-26 2-43-11-46-33-3-18 3-43 18-74 3-7 7-15 12-23-2-5-4-10-6-15-13-40-32-83-51-119v0z m-71-89c-1 0-3 0-6 4-2 4-2 7 0 11 5 9 22 22 54 35-23-35-40-49-48-50v0z m327 82c0 0 0 0 0-1-4-11-9-12-17-10-10 2-23 10-38 21 40 0 53-7 55-10v0z m-200 233c1 5 1 9 13 9 0 0 1 0 2 0 3-4 5-22-3-58-9 21-14 38-12 49z m21-125c6-10 13-19 20-29 11-15 23-30 36-44-15-1-30-4-45-6-10-2-28-6-49-11 4 10 9 19 13 30 9 20 18 40 25 60v0z" horiz-adv-x="1021" />

<glyph glyph-name="fdf-4" unicode="&#xe81e;" d="M741 618l-232 232h-472c-20 0-37-17-37-37v-665h741v470z m-232 37c0-20 16-37 37-37h195l-232 232v-195z m-509-507v-251c0-21 17-38 38-38h665c21 0 38 17 38 38v251h-741z m180 43c-11 0-23 4-33 13-18 15-20 31-18 42 9 51 102 96 156 119 30 74 55 161 71 226-32 67-43 115-33 142 5 14 15 22 29 26l2 0 2 0c1 0 15-3 27-18 14-20 17-52 9-96-2-12-6-30-11-51 29-60 69-127 103-173 27 4 54 5 76 3 41-4 50-22 52-33 2-15-9-31-29-39-26-12-70-9-106 37-1 2-3 4-4 6-46-7-99-22-153-42-5-2-11-4-16-6-37-89-72-141-107-153-5-2-11-3-17-3z m92 142c-77-35-116-69-119-91-1-4-1-12 9-20 9-7 18-9 28-6 27 10 56 57 82 117z m228 66c27-31 56-33 74-26 10 4 15 11 14 15 0 4-9 10-31 12-16 2-35 1-57-1z m-128 159c-12-46-28-101-47-155-3-9-6-18-9-26 42 15 93 31 142 40-27 37-59 89-86 141z m-17 176c-5-1-8-4-9-9-7-19 2-54 19-96 2 7 3 14 4 21 9 48 1 69-5 77-4 4-7 7-9 7z m192-715h-45v45h45c8 0 15 7 15 15 0 9-7 16-15 16h-60c-8 0-15-7-15-16v-151c0-8 7-15 15-15 9 0 15 7 15 15v60h45c8 0 15 7 15 16 0 8-7 15-15 15z m-322 75h-31c-8 0-15-6-15-15v-151c0-9 7-15 15-15 9 0 15 6 15 15v60h16c29 0 53 24 53 53 0 30-24 53-53 53z m0-75h-16v45h16c12 0 23-10 23-22 0-13-11-23-23-23z m131 75h-40c-9 0-15-6-15-15v-151c0-9 6-15 15-15h40c50 0 91 40 91 91 0 50-41 90-91 90z m0-151h-25v121h25c33 0 60-27 60-60 0-34-27-61-60-61z" horiz-adv-x="741" />

<glyph glyph-name="file" unicode="&#xe81f;" d="M330 448h-189c-9 0-17-8-17-17 0-10 8-17 17-17h189c9 0 17 7 17 17 0 9-8 17-17 17z m0 85h-189c-9 0-17-8-17-18 0-9 8-17 17-17h189c9 0 17 8 17 17 0 10-8 18-17 18z m792-347c-3 0-6 2-7 4-3 10-7 20-12 29-1 2 0 6 2 8 16 16 16 42 0 58l-39 39c-16 16-42 16-58 0-2-3-5-3-8-2-9 5-19 9-28 12-3 1-5 4-5 7 0 22-19 41-41 41h-55c-23 0-41-19-41-41 0-3-2-6-5-7-9-3-19-7-28-12-3-1-6-1-8 2-16 16-42 16-58 0l-39-39c-16-16-16-42 0-58 2-2 3-6 2-8-5-9-9-19-12-29-1-2-4-4-7-4-22 0-41-19-41-41v-55c0-23 19-41 41-41 3 0 6-2 7-5 3-9 7-19 12-28 1-3 0-6-2-8-16-16-16-42 0-58l39-39c16-16 42-16 58 0 2 2 5 3 8 1 9-4 19-8 28-11 3-1 5-4 5-7 0-23 18-41 41-41h55c22 0 41 18 41 41 0 3 2 6 5 7 9 3 19 7 28 11 3 2 6 1 8-1 16-16 42-16 58 0l39 39c16 16 16 42 0 58-2 2-3 5-2 8 5 9 9 19 12 28 1 3 4 5 7 5 22 0 41 18 41 41v55c0 22-19 41-41 41v0z m7-96c0-4-3-7-7-7-18 0-34-11-39-28-3-8-6-16-10-24-8-16-5-35 8-47 2-3 2-8 0-10l-39-39c-3-3-7-3-10 0-12 13-31 16-47 8-8-4-16-7-24-10-17-6-28-21-28-39 0-4-3-7-7-7h-55c-4 0-7 3-7 7 0 18-11 33-28 39-8 3-16 6-24 10-6 3-12 4-18 4-11 0-21-4-29-12-3-3-7-3-10 0l-39 39c-2 2-2 7 0 10 13 12 16 31 8 47-4 8-7 16-10 24-5 17-21 28-39 28-4 0-7 3-7 7v55c0 4 3 7 7 7 18 0 34 11 39 28 3 8 6 16 10 24 8 15 5 34-8 47-2 3-2 7 0 10l39 38c3 3 7 3 10 0 12-12 31-15 47-7 8 4 16 7 24 10 17 5 28 21 28 39 0 3 3 7 7 7h55c4 0 7-4 7-7 0-18 11-34 28-39 8-3 16-6 24-10 16-8 35-5 47 7 3 3 7 3 10 0l39-38c2-3 2-7 0-10-13-13-16-32-8-47 4-8 7-16 10-24 5-17 21-28 39-28 4 0 7-3 7-7v-55h0z m-231 143c-64 0-116-52-116-116 0-64 52-116 116-116 65 0 117 52 117 116 0 64-52 116-117 116z m0-198c-45 0-82 37-82 82 0 46 37 82 82 82 46 0 83-36 83-82 0-45-37-82-83-82z m-276-58c0 0 0 0 0 0l-544-1c0 0 0 0 0 0-24 0-44 20-44 44v562c0 24 20 44 44 44h524c31 0 58 17 71 45l53 116c7 16 23 26 40 26l242 0h0c24 0 43-20 43-44l1-385c0-10 7-17 17-17 9 0 17 7 17 17l0 385c0 43-35 78-78 78 0 0 0 0 0 0l-242 0c-30 0-58-18-71-45l-9-20-608 0c0 0 0 0 0 0-43 0-78-35-78-78v-684c0-43 35-78 78-78h0l544 0c9 0 17 8 17 18 0 9-8 17-17 17z m-544 771h0l593 0-29-63c-7-15-23-25-40-25h-524c-16 0-31-5-44-14v58c0 24 20 44 44 44v0z" horiz-adv-x="1163" />

<glyph glyph-name="file-2" unicode="&#xe820;" d="M950 583h-83v50c0 28-23 50-50 50h-392l-69 82c-9 12-23 18-38 18h-268c-28 0-50-22-50-50v-733c0-46 37-83 83-83h834c46 0 83 37 83 83v533c0 28-22 50-50 50v0z m-917-583v733c0 10 8 17 17 17h268c5 0 9-2 13-6l50-61h-198c-9 0-16-7-16-16 0-9 7-17 16-17h634c9 0 16-7 16-17v-50h-650c-27 0-50-22-50-50v-533c0-28-22-50-50-50-27 0-50 22-50 50v0z m934 0c0-28-23-50-50-50h-767c11 14 17 32 17 50v533c0 10 7 17 16 17h767c9 0 17-7 17-17v-533z m-261 346l-222-190-56 56c-4 4-10 6-16 4-6-1-10-6-12-12-1-5 1-12 5-16l67-66c6-7 16-7 22-1l234 200c4 3 7 10 6 16-1 6-6 11-11 13-6 1-13 0-17-4l0 0z m-139 171c-148 0-267-120-267-267 0-147 119-267 267-267 147 0 266 120 266 267 0 147-119 267-266 267v0z m0-500c-129 0-234 104-234 233 0 129 105 233 234 233 129 0 233-104 233-233 0-129-104-233-233-233z" horiz-adv-x="1000" />

<glyph glyph-name="financial" unicode="&#xe821;" d="M667 64l-100 33v41c15 10 28 23 38 37 10 15 17 32 20 49h18c13 0 24 5 33 13 9 9 13 21 13 33 0 12-4 24-13 32-9 9-20 14-33 14h-8l15 37c7 18 10 37 8 57-2 19-9 37-20 53-10 16-25 29-42 38-17 9-36 14-55 14h-101c-19 0-38-5-56-14-17-9-31-22-42-38-11-16-18-34-20-53-2-20 1-39 8-57l15-37h-8c-12 0-24-5-32-14-9-8-14-20-14-32 0-12 5-24 14-33 8-8 20-13 32-13h19c8-34 28-64 58-84v-43l-100-33c-25-8-46-24-61-45-15-21-23-46-23-72v-60c0-4 1-8 4-11 3-3 7-4 11-4h490c4 0 8 1 11 4 3 3 5 7 5 11v60c0 26-8 51-23 72-15 21-37 37-61 45z m-242 5l39-40-27-14-20 51 8 3z m60-121h10l19-46h-47l18 46z m9 31h-8l-8 23 12 6 12-6-8-23z m22 50l40 40 8-3-21-51-27 14z m127 256c4 0 8-1 11-4 3-3 5-7 5-11 0-4-2-8-5-11-3-3-7-4-11-4h-15v30h15z m-203 199h101c14 0 28-3 41-10 12-6 23-16 31-28 8-12 13-25 15-40 1-14-1-28-6-42l-13-33c-11 1-20 4-29 10-9 6-15 14-20 23l-10 20c-1 2-3 4-6 6-2 1-5 2-8 2-2 0-5-1-8-2-2-2-4-4-5-6l-11-20c-4-10-12-18-21-24-10-6-20-9-31-9h-88l-13 33c-6 14-8 28-6 42 1 15 6 28 14 40 8 12 19 21 32 28 12 7 27 10 41 10z m-103-229c-4 0-8 1-11 4-3 3-4 7-4 11 0 4 1 8 4 11 3 3 7 4 11 4h15v-30h-15z m46 0v46h77c15 0 30 3 44 11 13 8 24 18 32 32 7-11 16-21 26-28 11-7 23-12 35-14v-51c0-28-10-54-30-73-19-20-46-31-73-31h-3c-29 0-56 12-76 32-20 20-32 47-32 76z m108-138h3c14 0 29 2 42 7v-32l-46-46-46 46v33c15-5 31-8 47-8z m-231-170c0 20 7 39 18 54 11 16 27 28 45 34l65 21 27-68c0-2 2-3 3-5 2-1 3-2 5-3 2-1 4-1 6-1 2 0 5 0 7 1l15 8 8-24-25-62h-82v46h-30v-46h-62v45z m460-45h-61v46h-31v-46h-81l-25 62 8 24 15-8c2-1 4-1 7-1 1 0 3 0 5 1 2 1 4 2 5 3 2 2 3 3 4 5l27 68 64-21c19-6 34-18 46-34 11-15 17-34 17-54v-45z m184 919h-276c-16 0-32-6-43-18-12-11-18-27-18-43v-184c0-16 6-32 18-43 11-12 27-18 43-18h92v-46c0-3 1-6 3-8 1-3 4-5 6-6 3-1 6-2 9-1 3 1 6 2 8 4l57 57h101c16 0 32 6 43 18 12 11 18 27 18 43v184c0 16-6 32-18 43-11 12-27 18-43 18z m30-245c0-8-3-16-8-21-6-6-14-9-22-9h-107c-4 0-8-2-11-5l-35-35v24c0 4-2 8-5 11-3 3-7 5-11 5h-107c-8 0-16 3-22 9-5 5-9 13-9 21v184c0 8 4 16 9 22 6 6 14 9 22 9h276c8 0 16-3 22-9 5-6 8-14 8-22v-184z m-177 108h55c4 0 8 1 11 4l20 20v-24h30v61c0 4-1 8-4 11-3 3-7 4-11 4h-61v-31h24l-15-15h-55c-4 0-8-1-11-4l-61-62 21-21 57 57z m116-16h-30v-61h-31v46h-31v-46h-30v31h-31v-31h-61v153h-31v-168c0-4 2-8 5-11 2-3 6-5 10-5h261v31h-31v61z m-628-214c4 0 8 1 11 4 3 3 4 7 4 11v46h92c17 0 32 6 44 18 11 11 18 27 18 43v184c0 16-7 32-18 43-12 12-27 18-44 18h-275c-17 0-32-6-44-18-11-11-18-27-18-43v-184c0-16 7-32 18-43 12-12 27-18 44-18h101l56-57c3-3 7-4 11-4z m-15 76v-24l-35 35c-3 3-7 5-11 5h-107c-8 0-16 3-22 9-6 5-9 13-9 21v184c0 8 3 16 9 22 6 6 14 9 22 9h275c9 0 16-3 22-9 6-6 9-14 9-22v-184c0-8-3-16-9-21-6-6-13-9-22-9h-107c-4 0-8-2-11-5-3-3-4-7-4-11z m30 108c0 12-4 23-13 32-9 9-20 14-32 14-4 0-6 0-9 2-3 2-4 4-6 7-1 3-1 6-1 9 1 3 3 6 5 8 2 2 5 3 8 4 2 0 6 0 8-1 3-1 6-3 7-6 2-2 3-5 3-8h30c0 9-3 19-8 26-6 8-13 14-22 17v18h-31v-18c-10-4-19-11-24-20-6-9-8-20-6-31 2-11 8-20 16-27 8-7 19-11 30-11 3 0 6-1 8-3 3-1 5-4 6-7 1-2 1-5 1-8-1-3-3-6-5-8-2-2-5-4-8-4-2-1-6-1-8 0-3 2-6 4-7 6-2 3-3 6-3 9h-30c0-10 3-19 8-27 6-8 13-13 22-17v-18h31v18c9 4 16 9 22 17 5 8 8 17 8 27z" horiz-adv-x="980" />

<glyph glyph-name="google-docs-1" unicode="&#xe822;" d="M877 607l-234 234c-5 6-13 9-21 9h-410c-48 0-88-39-88-88v-824c0-49 40-88 88-88h586c49 0 88 39 88 88v648c0 8-3 16-9 21z m-225 143l134-134h-105c-16 0-29 13-29 29v105z m146-841h-586c-16 0-29 13-29 29v824c0 16 13 29 29 29h381v-146c0-48 39-88 88-88h146v-619c0-16-13-29-29-29z m-117 527h-352c-16 0-29-13-29-29 0-16 13-30 29-30h352c16 0 29 14 29 30 0 16-13 29-29 29z m0-117h-352c-16 0-29-13-29-29 0-17 13-30 29-30h352c16 0 29 13 29 30 0 16-13 29-29 29z m0-117h-352c-16 0-29-14-29-30 0-16 13-29 29-29h352c16 0 29 13 29 29 0 16-13 30-29 30z m-117-118h-235c-16 0-29-13-29-29 0-16 13-29 29-29h235c16 0 29 13 29 29 0 16-13 29-29 29z" horiz-adv-x="1012" />

<glyph glyph-name="groth" unicode="&#xe823;" d="M966 748l-12 88c-1 4-3 8-7 11-4 2-8 4-13 3l-98-15c-9-1-15-10-14-19 1-9 10-15 19-14l57 9c-76-94-158-173-244-237-75-56-154-99-233-130-134-53-226-49-227-49-9 0-17-7-18-16 0-9 7-17 17-18 0 0 2 0 6 0 25 0 112 4 233 51 82 32 163 77 241 134 89 66 174 148 253 245l7-48c1-8 8-14 16-14 1 0 2 0 3 0 9 1 15 9 14 19z m191-801h-137c12 8 22 16 32 26 39 38 60 89 60 143 0 54-21 104-60 142-14 14-29 25-45 34v68c0 9-8 16-17 16-10 0-17-7-17-16v-53c-46 15-97 14-142-4v205c0 2 2 4 4 4h134c2 0 4-2 4-4v-41c0-9 7-17 17-17 9 0 17 8 17 17v41c0 21-17 38-38 38h-134c-21 0-38-17-38-38v-223c-12-7-23-16-34-27-38-38-60-88-60-142 0-54 22-105 60-143 10-10 21-18 32-26h-107v409c0 21-17 38-38 38h-134c-21 0-38-17-38-38v-409h-109v272c0 20-17 37-38 37h-134c-21 0-38-17-38-37v-272h-70v861c0 17-14 31-31 31h-27c-17 0-31-14-31-31v-119c0-9 8-16 17-16 9 0 17 7 17 16v116h21v-860c0-17 15-31 32-31h1068v-25h-1121v694c0 10-8 17-17 17-9 0-17-7-17-17v-697c0-17 14-31 31-31h1126c17 0 31 14 31 31v30c0 18-14 31-31 31z m-822 0h-142v272c0 2 2 4 4 4h134c2 0 4-2 4-4v-272z m177 0v409c0 3 2 4 4 4h134c2 0 4-1 4-4v-409h-142z m470 17c-17-8-35-13-54-15-1 0-1-1-1-1-2 0-3 0-4 0-2 0-4 0-6 0-1 0-1 0-2 0-3-1-5-1-7-1-3 0-5 0-8 1-1 0-1 0-2 0-2 0-4 0-6 0-1 0-3 0-4 1-1 0-2 0-3 0-2 0-4 0-5 1 0 0 0 0-1 0-20 3-39 10-57 20 0 0 0 0 0 0-12 7-24 16-35 27-32 32-50 74-50 119 0 45 18 87 50 119 12 12 26 22 41 29 0 1 1 1 1 1 25 13 52 19 79 19 21 0 43-4 63-12 0 0 1 0 1-1 2 0 4-1 6-2 1-1 2-1 3-1 17-8 33-19 47-33 66-66 66-173 0-238-13-14-29-24-45-32 0 0 0 0-1-1z m-67 168v60c21-2 29-11 36-11 9 0 13 11 13 16 0 15-28 21-49 22v7c0 4-4 7-8 7-6 0-9-3-9-7v-8c-28-3-57-18-57-55 0-37 30-48 57-57v-69c-30 2-38 23-48 23-8 0-14-10-14-17 0-14 25-34 62-35h0v-9c0-3 3-7 9-7 4 0 8 4 8 7v10c33 5 55 25 55 61 0 40-29 53-55 62z m-15 6c-16 5-29 12-29 28 0 16 12 23 29 25v-53z m14-101v62c14-6 26-14 26-33 0-16-10-26-26-29z" horiz-adv-x="1188" />

<glyph glyph-name="group-circle" unicode="&#xe824;" d="M774 30l-143-142c-5-6-13-9-21-9-8 0-16 3-22 9-6 6-9 14-9 22 0 8 3 16 9 22l10 10c26 26 26 69 0 95-26 26-69 26-95 0l-19-19c-19-19-45-30-72-30-28 0-53 11-73 30-19 20-30 45-30 73 0 27 11 53 30 72l44 44c6 5 6 15 0 20-6 6-15 6-21 0l-43-43c-52-52-52-135 0-187 24-25 57-38 93-38 35 0 68 13 93 38l19 19c15 15 39 15 54 0 14-14 14-39 0-53l-11-11c-11-11-17-26-17-42 0-16 6-31 17-42 12-12 27-18 43-18 16 0 31 6 42 18l142 142c6 5 6 15 0 20-5 6-15 6-20 0v0z m-588 264l-170-171c-21-21-21-55 0-75 10-11 24-16 37-16 14 0 28 5 38 16l171 170c21 21 21 55 0 76-21 20-55 20-76 0v0z m55-55l-170-171c-10-9-25-9-35 0-9 10-9 25 0 34l171 171c5 5 11 7 17 7 6 0 12-2 17-7 9-10 9-25 0-34z m737 401c0 73-60 133-133 133-73 0-132-60-132-133 0-18 3-35 9-50-9-6-17-12-25-20l-58-58c-15-15-40-15-55 0-16 15-16 40 0 55l58 58c24 25 38 58 38 93 0 36-14 69-38 94-52 51-135 51-187 0l-228-229c-51-51-51-134 0-186 58-57 147-47 195 9 16 15 41 15 56 0 7-7 11-17 11-28 0-10-4-20-11-28l-75-74c-6-6-6-15 0-21 6-6 15-6 21 0l75 75c13 13 20 30 20 48 0 19-7 36-20 49-27 26-71 26-97 0-41-49-112-51-154-9-40 40-40 105 0 145l228 228c19 19 45 30 72 30 28 0 54-11 73-30 19-20 30-45 30-73 0-27-11-53-30-72l-58-58c-27-27-27-70 0-97 27-27 70-27 97 0l58 58c6 6 12 11 19 15 30-45 94-69 149-50 4-12 7-25 7-37 0-28-11-53-30-73l-210-209c-12-13-19-30-19-48 0-18 7-35 19-47 13-13 30-20 48-20 18 0 35 7 47 20l43 43c6 5 14 9 22 9 8 0 16-4 22-9 12-12 12-32 0-44l-20-20c-6-6-6-15 0-21 3-3 6-4 10-4 4 0 8 1 10 4l20 20c24 24 24 62 0 85-11 12-26 18-42 18-16 0-31-6-42-18l-43-43c-7-7-17-11-27-11-10 0-20 4-27 11-7 8-11 17-11 27 0 10 4 20 11 27l209 209c25 25 39 58 39 94 0 17-3 33-9 49 39 23 65 65 65 114z m-133-103c-33 0-62 15-81 39 38 10 82-3 107-36-8-2-17-3-26-3v0z m54 14c-31 48-98 69-150 51-5 12-7 24-7 38 0 57 46 103 103 103 57 0 104-46 104-103 0-38-20-70-50-89z m-784 102c32 0 59 27 59 60 0 33-27 60-59 60-33 0-60-27-60-60 0-33 27-60 60-60z m0 90c16 0 30-13 30-30 0-17-14-30-30-30-17 0-31 13-31 30 0 17 14 30 31 30z" horiz-adv-x="978" />

<glyph glyph-name="growth" unicode="&#xe825;" d="M146 143h-125c-13 0-21-8-21-21v-249c0-13 8-21 21-21h125c12 0 20 8 20 21v249c0 13-8 21-20 21z m-21-249h-83v208h83v-208z m576 353h-125c-13 0-21-8-21-21v-353c0-13 8-21 21-21h125c12 0 20 8 20 21v353c0 13-10 21-20 21z m-21-353h-83v312h83v-312z m-258 476h-125c-12 0-20-9-20-21v-476c0-13 8-21 20-21h125c13 0 21 8 21 21v476c0 12-8 21-21 21z m-21-476h-83v434h83v-434z m576 632h-125c-12 0-20-9-20-21v-632c0-13 8-21 20-21h125c13 0 21 8 21 21v632c0 12-8 21-21 21z m-21-632h-83v590h83v-590z m-101 792c14-11 33-17 54-17 49 0 91 42 91 92-2 47-44 89-94 89-49 0-91-42-91-91 0-15 4-30 10-42l-135-116c-14 10-33 16-52 16-25 0-45-10-62-25l-166 102c2 8 4 17 4 27 0 50-42 92-92 92-50 0-91-42-91-92 0-16 4-33 12-46l-108-101c-14 8-29 14-48 14-45 0-87-41-87-91 0-50 42-92 92-92 49 0 91 42 91 92 0 16-4 33-15 47l106 102c15-8 32-14 50-14 25 0 48 10 65 27l166-100c-4-10-6-21-6-31 0-50 41-92 91-92 50 0 92 42 92 92 0 14-4 29-11 43l134 115z m-763-239c-28 0-50 23-50 50 0 27 22 50 50 50 12 0 24-5 33-13h2c8-8 14-21 14-35-2-29-22-52-49-52z m232 224c-27 0-50 23-50 50 0 27 23 50 50 50 27 0 50-23 50-50-2-27-23-50-50-50z m582 137c28 0 50-22 50-49 0-27-22-50-50-50-27 0-49 23-49 50 2 27 22 49 49 49z m-268-330c-27 0-50 23-50 50 0 27 23 50 50 50 27 0 50-23 50-50 0-27-23-50-50-50z" horiz-adv-x="1000" />

<glyph glyph-name="guaranteed" unicode="&#xe826;" d="M853 226h-187v457c0 9-7 16-16 16h-503c-9 0-16-7-16-16v-568c0-63 52-114 114-114 278 0 229 0 507 0 64 0 117 53 117 117v92c0 9-7 16-16 16z m-608-194c-45 0-82 38-82 83v553h471v-550c0 0 0 0 0 0 0-34 15-64 38-86-3 0 30 0-427 0z m592 86c0-47-38-86-85-86-48 0-86 39-86 86v76h171v-76h0z m-505 255l58-39c2-2 5-3 8-3 4 0 7 1 9 3l58 39c32 22 51 54 51 89v112c0 7-5 13-12 15l-102 26c-2 1-5 1-7 0l-102-26c-7-2-12-8-12-15v-112c0-35 19-67 51-89z m-20 189l86 22 86-22v-100c0-24-13-47-37-63l-49-33-48 33c-24 16-38 39-38 63v100z m72-115c3-3 7-5 11-5 4 0 8 2 11 5l52 51c6 6 6 16 0 22-6 6-16 6-22 0l-41-40-21 20c-6 6-16 6-22 0-6-6-6-16 0-22l32-31z m141-163h-253c-9 0-16-7-16-16 0-8 7-15 16-15h253c8 0 15 7 15 15 0 9-7 16-15 16z m0-96h-253c-9 0-16-7-16-15 0-9 7-16 16-16h253c8 0 15 7 15 16 0 8-7 15-15 15z" horiz-adv-x="1000" />

<glyph glyph-name="hand-1" unicode="&#xe827;" d="M406 225c0-34-28-62-62-62-35 0-63 28-63 62v94-63c0-34-28-62-62-62-35 0-63 28-63 62v313c0 69 57 125 125 125h32 248c21 0 40-10 51-27l218-309c22-27 17-67-10-88-27-22-66-17-88 10l-76 96v-464c0-34-28-62-62-62-35 0-63 28-63 62v407-125c0-35-28-63-62-63-35 0-63 28-63 63v94m250 531v-125c0-17-12-31-27-31h-445c-15 0-28 14-28 31v125c0 17 13 31 28 31h444c16 0 28-14 28-31z" horiz-adv-x="1000" />

<glyph glyph-name="hand-2" unicode="&#xe828;" d="M887 223c49 0 89-40 89-89 0-49-40-88-89-88h-132 88c49 0 89-40 89-89 0-49-40-89-89-89h-443c-97 0-177 80-177 178v44 352c0 29 14 56 38 73l439 308c38 31 94 25 124-14 31-38 25-94-14-124l-136-108h656c49 0 89-40 89-89 0-48-40-88-89-88h-575 177c49 0 88-40 88-89 0-49-39-88-88-88h-133m-753 354h177c25 0 44-18 44-39v-630c0-22-19-40-44-40h-177c-24 0-44 18-44 40v630c0 21 20 39 44 39z" horiz-adv-x="1442" />

<glyph glyph-name="hand-3" unicode="&#xe829;" d="M250 225c0-35-28-62-62-62-35 0-63 27-63 62l0 94 0-63c0-34-28-62-62-62-35 0-63 28-63 62l0 313c0 69 56 125 125 125l31 0 249 0c20 0 40-10 51-27l218-309c22-27 17-67-10-88-27-22-67-18-88 10l-76 96 0-464c0-34-28-62-62-62-35 0-63 28-63 62l0 407 0-125c0-35-28-63-62-63-35 0-63 28-63 63l0 94m250 531l0-125c0-17-12-31-28-31l-444 0c-15 0-28 14-28 31l0 125c0 17 13 31 28 31l444 0c16 0 28-14 28-31z" horiz-adv-x="700" />

<glyph glyph-name="hand-4" unicode="&#xe82a;" d="M250 225c0-35-28-62-62-62-35 0-63 27-63 62l0 94 0-63c0-34-28-62-62-62-35 0-63 28-63 62l0 313c0 69 56 125 125 125l31 0 249 0c20 0 39-10 51-27l218-309c21-27 17-67-10-88-27-22-67-18-88 10l-76 96 0-464c0-34-28-62-62-62-35 0-63 28-63 62l0 407 0-125c0-35-28-63-62-63-35 0-63 28-63 63l0 94m250 531l0-125c0-17-12-31-28-31l-444 0c-16 0-28 14-28 31l0 125c0 17 12 31 28 31l444 0c16 0 28-14 28-31z" horiz-adv-x="700" />

<glyph glyph-name="heart-1" unicode="&#xe82b;" d="M98 289c-11 0-20-8-20-19 0-11 9-20 20-20 10 0 19 9 19 20 0 11-9 19-19 19z m800-67l-184-64c0 5 1 9 1 14 0 43-35 78-78 78h-127c-3 0-6 1-9 3l-103 58c-21 11-44 17-68 17h-138c-8 23-30 39-55 39h-117c-11 0-20-8-20-19v-352c0-11 9-19 20-19h117c25 0 46 15 54 37 23-2 48-9 64-19l102-61c39-23 83-35 128-35 36 0 71 7 103 22l365 161c40 16 60 64 37 107-17 31-56 45-92 33v0z m-742-187c0-10-8-19-19-19h-98v312h98c11 0 19-8 19-19v-274z m782 83c0 0 0-1 0-1 0 0-366-160-366-160-27-13-56-19-87-19-38 0-75 10-108 30l-102 61c-22 13-53 21-80 24v236h135c17 0 34-4 48-12l104-58c8-5 18-8 28-8h127c21 0 39-17 39-39 0-21-18-39-39-39h-199c-11 0-19-9-19-19 0-11 8-20 19-20h199c13 0 25 3 36 9 0 0 238 82 238 82 17 6 37 0 45-15 12-21 2-44-18-52v0z m-369 209c4-3 8-4 13-4 4 0 9 1 12 4 160 139 258 208 258 317 0 86-60 157-146 157-56 0-99-32-127-81-27 49-70 81-126 81-66 0-121-42-140-108-3-10 3-21 13-24 11-3 22 3 25 13 14 49 54 80 102 80 55 0 94-49 108-95 2-9 10-15 18-15 9 0 17 6 19 15 0 1 28 95 108 95 61 0 107-51 107-118 0-87-85-149-231-276-90 77-161 131-201 184-7 8-19 10-28 3-8-6-10-18-3-27 45-60 122-117 219-201v0z m-239 302c-11 0-19-9-19-19 0-11 8-20 19-20 11 0 20 9 20 20 0 10-9 19-20 19z" horiz-adv-x="1000" />

<glyph glyph-name="home-location" unicode="&#xe82c;" d="M364 351c43 0 77 35 77 77 0 42-34 77-77 77-42 0-76-35-76-77 0-42 34-77 76-77z m346-253c32 0 57 26 57 58 0 31-25 57-57 57-32 0-58-26-58-57 0-32 26-58 58-58z m18 229c1 2 1 3 1 5v154c0 5-2 10-6 13l-109 110v172c0 11-9 19-19 19h-77c-11 0-19-8-19-19v-57l-121 120c-7 8-20 8-27 0l-345-345c-4-3-6-8-6-13v-154c0-8 5-15 12-18 7-3 15-1 21 5l44 44v-299c0-11 8-20 19-20h192c10 0 19 9 19 20v172h115v-172c0-11 9-20 19-20h128c45-88 123-166 127-171 4-3 9-5 14-5 5 0 10 2 13 5 7 7 159 161 159 283 0 89-67 162-154 171z m-40 0c-12-2-24-5-36-9v45l36-36z m-151 435h38v-115l-38 38v77z m-499-284l326 326 327-326v-100l-44 44 0 0-269 269c-4 4-9 6-14 6-4 0-9-2-13-6l-269-269 0 0-44-44v100z m422-395v172c0 11-8 20-19 20h-153c-11 0-19-9-19-20v-172h-154v318l249 249 250-249v-102c-46-31-77-84-77-143 0-24 6-49 15-73h-92v0z m250-168c-37 40-135 154-135 241 0 74 61 134 135 134 74 0 134-60 134-134 0-87-98-201-134-241z" horiz-adv-x="882" />

<glyph glyph-name="homepage-1" unicode="&#xe82d;" d="M447 735c31 26 75 26 106 0l334-278c19-16 30-39 30-64v-376c0-46-38-84-84-84h-666c-46 0-84 38-84 84v376c0 25 11 48 30 64l334 278z m53-64l-333-278v-376h166v146c0 46 38 83 84 83h166c46 0 84-37 84-83v-146h166v376l-333 278z m83-654v146h-166v-146h166z" horiz-adv-x="1000" />

<glyph glyph-name="id-card-2" unicode="&#xe82e;" d="M869 685h-738c-72 0-131-59-131-131v-407c0-73 59-132 131-132h738c72 0 131 59 131 132v407c0 72-59 131-131 131v0z m72-538c0-40-32-73-72-73h-738c-40 0-72 33-72 73v407c0 39 32 72 72 72h738c40 0 72-33 72-72v-407z m-579 221c18 19 29 45 29 74 0 59-49 108-108 108-59 0-108-49-108-108 0-29 11-55 29-74-46-27-77-78-77-135v-49c0-16 13-30 29-30h254c16 0 29 14 29 30v49c0 57-31 108-77 135v0z m-79 123c27 0 49-22 49-49 0-27-22-50-49-50-27 0-49 23-49 50 0 27 22 49 49 49z m98-278h-196v20c0 54 44 98 98 98 54 0 98-44 98-98v-20z m463 49h-301c-16 0-29-13-29-29 0-17 13-30 29-30h301c16 0 29 13 29 30 0 16-13 29-29 29z m0 117h-301c-16 0-29-13-29-29 0-16 13-29 29-29h301c16 0 29 13 29 29 0 16-13 29-29 29z m0 118h-301c-16 0-29-13-29-30 0-16 13-29 29-29h301c16 0 29 13 29 29 0 17-13 30-29 30z" horiz-adv-x="1000" />

<glyph glyph-name="id-card-1" unicode="&#xe82f;" d="M919 661h-838c-44 0-81-37-81-82v-457c0-45 37-82 81-82h838c45 0 81 37 81 82v457c0 45-36 82-81 82v0z m20-539c0-12-9-21-20-21h-838c-11 0-20 9-20 21v457c0 12 9 21 20 21h838c11 0 20-9 20-21v-457z m-536 237c35 43 33 106-7 146-43 42-112 42-154 0-40-40-43-103-8-146-30-16-56-40-74-70-16-26-16-57-1-83 15-26 42-42 72-42h175c31 0 58 16 72 42 15 26 15 57 0 83-18 30-44 54-75 70z m23-123c-2-3-8-11-20-11h-175c-12 0-17 8-19 11-2 4-6 12 0 22 22 37 63 61 107 61 43 0 84-24 107-61 5-10 2-18 0-22z m-141 226c9 9 21 14 34 14 12 0 24-5 34-14 19-19 19-50 0-68-19-19-50-19-68 0-19 18-19 49 0 68z m557 34h-211c-16 0-30-14-30-31 0-17 14-30 30-30h211c16 0 30 13 30 30 0 17-14 31-30 31z m0-115h-211c-16 0-30-14-30-31 0-16 14-30 30-30h211c16 0 30 14 30 30 0 17-14 31-30 31z m-45-115h-166c-16 0-30-14-30-30 0-17 14-31 30-31h166c17 0 30 14 30 31 0 16-13 30-30 30z" horiz-adv-x="1000" />

<glyph glyph-name="instagram" unicode="&#xe830;" d="M993 549c-3 52-11 89-23 120-13 33-32 63-58 88-24 25-54 44-87 57-32 12-68 20-120 23-53 2-70 3-204 3-135 0-151-1-204-3-53-3-89-11-120-23-33-13-63-32-88-57-25-25-45-55-57-88-12-31-21-67-23-120-2-53-3-70-3-204 0-134 1-151 3-204 2-52 11-89 23-120 12-33 32-63 57-88 25-25 55-44 88-57 31-12 67-20 120-23 52-2 69-3 204-3 134 0 151 1 203 3 53 3 89 11 120 23 67 26 119 78 145 145 12 32 21 68 23 120 2 53 3 70 3 204 0 134 0 151-2 204z m-90-404c-2-48-10-74-17-92-16-43-50-77-93-94-18-7-44-15-92-17-52-2-68-3-200-3-132 0-148 1-200 3-48 2-74 10-92 17-21 8-41 21-57 37-16 16-29 36-36 57-7 17-15 44-17 92-3 52-3 68-3 200 0 132 0 147 3 199 2 49 10 75 17 92 7 22 20 41 37 57 16 16 35 29 56 37 18 7 44 15 92 17 52 2 68 3 200 3 132 0 148-1 200-3 48-2 74-10 92-17 21-8 41-21 57-37 16-16 29-35 36-57 7-17 15-43 17-92 3-52 3-67 3-199 0-132 0-148-3-200z m-402 454c-141 0-254-114-254-254 0-140 113-254 254-254 140 0 254 114 254 254 0 140-114 254-254 254z m0-419c-91 0-165 74-165 165 0 91 74 165 165 165 91 0 165-74 165-165 0-91-74-165-165-165z m323 429c0-33-26-59-59-59-33 0-59 26-59 59 0 33 26 59 59 59 33 0 59-26 59-59z" horiz-adv-x="1000" />

<glyph glyph-name="international" unicode="&#xe831;" d="M924 576c-9-4-13-16-9-26 31-63 46-130 46-200 0-254-207-461-461-461-100 0-197 33-277 93 11 21 7 48-11 66-23 23-60 23-83 0-23-23-23-60 0-83 18-17 44-22 66-11 87-67 195-104 305-104 276 0 500 224 500 500 0 76-17 149-50 217-4 10-16 14-26 9z m-853-443c10 5 14 16 10 26-28 60-42 125-42 191 0 254 207 461 461 461 98 0 191-30 270-87-14-23-11-53 8-72 23-23 60-23 83 0 23 23 23 60 0 83-16 16-39 21-60 14-86 66-191 101-301 101-276 0-500-224-500-500 0-72 15-142 45-207 4-10 16-14 26-10z m429 588c-191 0-371-152-371-371 0-203 165-371 371-371 206 0 371 168 371 371 0 203-165 371-371 371z m-104-56c-41-48-65-116-78-178h-121c39 84 110 149 199 178z m-228-315c0 34 5 67 15 98l128 0c-4-32-6-65-6-98 0-33 2-66 6-98h-128c-10 31-15 64-15 98z m29-137h121c13-62 37-130 78-178-89 29-160 95-199 178z m284-192c-54 15-100 90-123 192h123v-192z m0 231h-130c-5 31-7 64-7 98 0 34 2 67 7 98h130v-196z m0 235h-123c23 102 69 177 123 192v-192z m39 192c53-15 100-90 122-192h-122v192z m0-231h129c5-31 7-64 7-98 0-34-2-67-7-98h-129v196z m0-427v192l122 0c-22-102-69-177-122-192z m85 14c40 48 64 116 77 178h121c-38-83-110-149-198-178z m227 315c0-34-5-67-15-98h-128c4 32 6 65 6 98 0 33-2 66-6 98h128c10-31 15-64 15-98z m-150 137c-13 62-37 130-77 178 88-29 160-94 198-178h-121z" horiz-adv-x="1000" />

<glyph glyph-name="lawyer" unicode="&#xe832;" d="M370 838c-108 0-195-87-195-195 0-6 0-12 0-19 0-23 35-20 33 2-1 6-1 12-1 17 0 90 73 163 163 163 90 0 163-73 163-163 0-20-3-42-8-65-4 0-7-1-11-2-6 20-25 35-47 35-27 0-48 21-48 48 0 9-8 17-17 17-9 0-16-8-16-17 0-27-21-48-49-48h-65c-22 0-40-15-46-35-10 3-20 3-29 1-20-6-38-23-39-48 0-47 35-77 74-81 8-23 22-44 40-60v-38h0c-4 0-8-2-11-5l-33-32c-4-5-6-11-4-17l105-339-120 153 14 57c1 6 0 12-4 16l-43 42 16 67c2 10-5 20-16 20-1 0-3 0-4-1-92-23-160-106-160-205v-228c0-9 7-16 16-16h602c22-1 22 33 0 32h-227l159 202c3 4 4 9 3 14l-14 56 42 42c4 4 5 10 4 15l-9 47c28-12 52-31 71-56 13-17 39 3 26 20-29 38-67 64-114 76-12 3-23-8-20-19l13-66-43-42c-4-5-6-10-4-16l14-57-120-153 105 339c1 6 0 12-4 17l-33 32c-3 3-7 5-12 5v38c19 16 33 36 41 60 40 3 73 34 73 81 0 19-11 34-25 42 6 24 9 49 9 72 0 108-87 195-195 195z m32-228c15-19 39-32 65-32 10 0 17-7 17-16v-65c0-64-51-114-114-114-64 0-114 50-114 114v65c0 9 7 16 16 16h65c27 0 51 13 65 32z m-179-70v-43c0-5 1-10 1-14-18 5-33 20-33 46 0 17 25 22 32 11z m326-11c0-24-15-41-33-46 0 4 0 9 0 14v43c8 11 33 6 33-11z m-114-164v-37l-65-54-65 54v37c19-9 41-15 65-15 23 0 45 6 65 15z m-162-53l70-59-59-42-26 86 15 15z m193 0l16-15-27-86-59 42 70 59z m-313-41l-11-47c-1-6 1-12 5-16l42-42-14-56c-1-5 0-10 3-14l158-202h-178v114c1 9-7 17-16 17-9 0-16-8-16-17v-114h-82v212c0 74 46 137 109 165z m730-130l-56-126c-1-2-1-4-1-7 0 0-1-19 9-40 11-20 32-41 72-41 40 0 61 21 71 41 10 21 10 40 10 40 0 3 0 5-1 7l-56 126c9 2 26 8 36 19 15 14-6 38-23 23-6-6-22-12-37-12-41 1-59 28-114 32v33c0 9-7 17-16 17v0c0 0 0 0 0 0-9 0-16-8-16-17v-33c-55-4-73-31-114-32-15 0-32 6-38 12-16 15-37-9-23-23 11-11 28-17 37-19l-56-126c-1-2-2-4-2-7 0 0 0-19 10-40 10-20 31-41 72-41 40 0 61 21 71 41 10 21 10 40 10 40 0 3 0 5-1 7l-56 126c33 6 52 30 106 30 53 0 73-25 106-30z m-513 91l25-18-18-27h-15l-18 27 26 18z m-52-37l18-28-13-81-29 93 24 16z m104 0l23-16-28-93-14 81 19 28z m-55-40h5l23-139-25-83-26 83 23 139z m410-16c-8 0-16-6-16-16v-229h-66c-22-1-21-33 0-32h82v0h81c21-1 23 31 1 32h-66v228c0 11-8 17-16 17v0l0 0z m-130-24l40-90h-80l40 90z m260 0l40-90h-80l40 90z m-306-123h92c0 0-6-32-46-32-40 0-46 32-46 32z m260 0h92c0 0-6-33-46-33-40 0-46 33-46 33z" horiz-adv-x="1000" />

<glyph glyph-name="layer" unicode="&#xe833;" d="M984 380c-1 0-2 1-3 1l-71 39-393-209c-11-5-23-5-34 0l-393 209-71-39c-17-9-24-30-15-47 1-1 1-2 2-3l494-262 494 262c11 16 7 38-10 49z m12-227c-4 6-9 11-15 14l-71 38-393-208c-11-6-23-6-34 0l-393 208-71-38c-18-9-24-31-15-48 4-6 9-11 15-15l464-250c11-5 23-5 34 0l464 250c18 10 24 31 15 49z m-12 441c-1 1-2 1-3 2l-464 250c-11 5-23 5-34 0l-464-250c-17-9-24-31-15-48 1-1 1-2 2-3l494-262 494 262c11 16 7 38-10 49z" horiz-adv-x="1000" />

<glyph glyph-name="layers-1" unicode="&#xe834;" d="M996 367c-4 6-9 11-15 14l-140 76 140 76c12 6 19 18 19 31 0 13-7 26-19 32l-464 250c-11 5-23 5-34 0l-464-250c-18-10-24-31-15-49 4-6 9-11 15-14l140-76-140-76c-18-9-24-31-15-48 4-6 9-11 15-14l140-76-140-76c-18-9-24-31-15-48 4-6 9-11 15-15l464-250c11-5 23-5 34 0l464 250c18 10 24 31 15 49-4 6-9 11-15 14l-140 76 140 76c18 9 24 31 15 48z m-885 197l389 210 389-210-389-209-389 209z m778-428l-389-210-389 210 124 66 248-133c11-6 23-6 34 0l248 133 124-66z m-389 5l-389 209 124 67 248-134c11-6 23-6 34 0l248 134 124-67-389-209z" horiz-adv-x="1000" />

<glyph glyph-name="leadership-1" unicode="&#xe835;" d="M278 37v50l-88 50v-148c0-7-6-14-14-14-7 0-13 7-13 14v171c0 4 2 9 6 11 5 3 10 3 14 0l116-65c4-2 7-6 7-11v-58c0-8-7-14-14-14-7 0-14 6-14 14v0z m-248 137v161c0 46 45 67 90 67h11c-17 16-29 43-29 73 0 46 28 75 72 75 45 0 72-29 72-75 0-30-11-57-29-73h106c4 0 8 0 12 2l50 17 34 12 74 26c7 2 12 6 16 11l24 28c26 32 48 57 87 57l35 0c-20 17-34 46-34 79 0 47 28 76 73 76 46 0 74-29 74-76 0-33-13-61-33-78h82l0 80c0 21 14 39 34 44v157c0 7 6 13 13 13h123c4 0 9-2 11-6 3-4 3-10 1-14l-15-27 15-27c2-4 2-9-1-14-2-4-7-6-11-6h-109v-76c18-6 32-23 32-44v-125c0-26-21-47-46-47l-57-2c-11 0-21-4-28-12-8-7-12-17-12-27v-90l112-65c4-3 7-7 7-12v-113c0-7-6-13-14-13-7 0-13 6-13 13v105l-112 65c-4 2-7 7-7 12v98c0 17 7 34 20 46 12 13 29 20 46 20l57 2c11 0 20 9 20 20v125c0 11-8 19-19 19-12 0-20-8-20-19l0-82c0-14-12-26-25-26l-199 0c-26 0-40-15-67-47l-23-28c-8-10-17-16-28-20l-49-17c3-4 7-9 9-14 3-7 4-15 3-23l71 22c6 2 11 5 16 10l38 42c3 4 9 6 14 4 6-2 9-7 9-13v-353c0-8-6-14-13-14-8 0-14 6-14 14v318l-14-16c-8-9-17-15-29-18l-107-33c0 0 0 0 0 0l-77-28c-7-2-14-4-22-4h-36c-10 0-20-3-27-11-7-7-11-16-11-27v-68l109-63c4-3 7-7 7-12v-92c0-8-6-14-13-14-8 0-14 6-14 14v84l-109 63c-4 3-7 7-7 12v76c0 18 7 34 19 46 12 13 29 20 46 20h36c5 0 8 0 13 2l77 27c4 2 8 6 10 10 2 5 2 10 0 15-4 9-15 14-25 10 0 0-69-24-69-24-7-2-13-3-20-3h-203c-6 0-63-1-63-40v-161c0-17 12-32 28-37v178c0 8 6 14 14 14 7 0 13-6 13-14v-194c0 0 0 0 0 0 0 0 0 0 0 0v-132c0-7-6-14-13-14-8 0-14 7-14 14v120c-31 6-55 33-55 65v0z m848 609h86l-7 14c-2 4-2 8 0 12l7 14h-86v-40z m-230-149c0-36 21-66 46-66 26 0 47 30 47 66 0 43-29 49-47 49-17 0-46-6-46-49v0z m-519-159c0-35 20-64 45-64 25 0 45 29 45 64 0 42-28 48-45 48-17 0-45-6-45-48z m668-345c8 0 14 6 14 13v78c0 5-3 9-7 12l-119 66c-4 3-9 3-13 0-4-2-7-7-7-11v-197c0-8 6-14 14-14 7 0 13 6 13 14v173l92-51v-70c0-7 6-13 13-13v0z m190-51h-244c-7 0-13-6-13-14v-41h-230c-7 0-13-6-13-13v-32h-230c-8 0-14-6-14-13v-38h-229c-8 0-14-6-14-13v-52c0-7 6-13 14-13 7 0 13 6 13 13v38h216v-38c0-7 6-13 14-13 7 0 13 6 13 13v89h217v-89c0-7 6-13 13-13 8 0 14 6 14 13v134h216v-134c0-7 6-13 13-13 8 0 14 6 14 13v189h216v-189c0-7 6-13 14-13 7 0 13 6 13 13v202c0 8-6 14-13 14v0z" horiz-adv-x="1000" />

<glyph glyph-name="left" unicode="&#xe836;" d="M500 850c-276 0-500-224-500-500 0-276 224-500 500-500 276 0 500 224 500 500 0 276-224 500-500 500z m-282-474l118 118c3 3 7 6 11 8 5 2 10 3 14 3 5 0 10-1 15-3 4-2 8-5 11-8 4-4 7-8 8-12 2-5 3-9 3-14 0-5-1-10-3-14-2-5-4-9-8-12l-55-55h292l107 107c6 7 16 10 25 10 10 0 19-3 26-10 7-7 11-17 11-26 0-10-4-19-11-26l-92-92 92-92c4-3 6-7 8-12 2-4 3-9 3-14 0-5-1-9-3-14-1-4-4-8-8-12-3-3-7-6-11-8-5-2-10-2-15-2-4 0-9 1-14 2-4 2-8 5-11 8l-107 107h-292l55-55c4-3 6-7 8-12 2-4 3-9 3-14 0-4-1-9-3-14-2-4-4-8-8-12-3-3-7-6-12-8-4-1-9-2-14-2-4 0-9 1-14 2-4 2-8 5-11 8l-118 118c-7 7-11 16-11 26 0 10 4 19 11 26z" horiz-adv-x="1000" />

<glyph glyph-name="left-3" unicode="&#xe837;" d="M924 466l-174-311-354 0 0-63c0-42-47-65-80-39l-277 219c-25 20-25 57 0 77l277 219c33 26 80 3 80-39l0-63 528 0z" horiz-adv-x="1000" />

<glyph glyph-name="like-1" unicode="&#xe838;" d="M904 258c0 25-12 48-30 64 6 11 10 25 10 39 0 46-38 84-84 84h-180c1 0 1 1 1 1 3 7 7 14 10 21 8 16 16 32 23 50 22 64 21 123-4 168-1 1-1 2-2 2-1 2-2 4-3 5-13 18-31 31-50 37-16 5-33 5-49 0-17-5-31-16-41-31-11-18-12-36-11-52 0-13 0-25-2-36-3-23-10-43-21-59-6-10-10-16-13-21-1-2-2-4-3-5 0 0 0 0 0 0-9-11-20-25-34-40-21-20-49-45-82-59v3c0 18-14 32-32 32h-179c-18 0-32-14-32-32v-425c0-18 14-32 32-32h179c18 0 32 14 32 32v16c2 0 3 0 4 0 5-2 11-6 18-10 1-1 3-2 4-3 12-7 23-13 34-17 28-10 56-14 85-18 27-3 51-5 75-5 4 0 8 0 12 0 1 0 1 0 1 0h211c46 0 84 38 84 84 0 13-3 26-9 37 20 15 34 39 34 66 0 16-5 31-13 44 15 15 25 36 25 60z m-629-222h-115v361h115v-9-7-345z m508-5h-213c0 0-1 0-2 0-23 0-48 1-76 5-26 3-49 6-70 14-7 3-14 6-23 12-1 0-3 1-4 2-9 6-19 12-33 17-8 2-16 3-23 3v274c21 6 41 15 61 28 23 14 45 32 67 55 16 16 29 33 39 46 0 0 0 0 1 0 0 1 0 1 1 2 1 1 1 2 2 3 10 13 15 21 15 22 2 3 3 5 4 8 13 22 22 49 27 79 2 15 3 30 2 47 0 5-1 13 1 15 4 6 11 7 17 5 6-2 13-7 18-14 0 0 0 0 0-1 20-37 11-83-1-116-4-13-11-27-18-41-4-7-8-15-12-23-8-19-13-39-13-60 0-18 14-32 32-32h218c11 0 20-9 20-20 0-11-9-20-20-20h-84c-18 0-32-14-32-32 0-17 14-32 32-32h104c11 0 20-8 20-19 0-11-9-20-20-20h-12-99c-18 0-32-14-32-32 0-18 14-32 32-32h97c1 0 1 0 2 0 11 0 20-9 20-20 0-10-9-19-20-19h-25-88c-17 0-32-15-32-32 0-18 15-32 32-32h88c11 0 20-9 20-20 0-11-9-20-20-20v0z" horiz-adv-x="1000" />

<glyph glyph-name="like-comment" unicode="&#xe839;" d="M457 576c-20 1-38-16-38-36-3-169-125-240-166-259-8 12-22 20-38 20h-159c-25 0-46-20-46-45v-339c0-26 21-46 46-46h159c19 0 36 11 43 28 26-19 59-29 92-29h0l342 1c21 1 40 10 53 25 12 16 17 37 13 57-2 10-6 19-12 26 28 9 49 33 50 62 1 18-5 34-16 48 19 9 33 26 37 47 4 19-1 39-13 55 25 9 42 33 43 60 2 38-29 70-71 71l-270-3c19 60 27 117 24 168-1 25-11 48-27 65-17 18-34 23-46 24z m-242-675h-159c-8 0-15 7-15 16v339c0 8 7 15 15 15h159c8 0 15-7 15-15l1-32v-307c0-9-7-16-16-16z m562 390c11 0 22-4 30-12 7-8 10-17 10-26-1-20-17-36-37-36l-225-1c-9 0-15-7-15-16v0c0-8 7-14 15-15 6 0 197 1 196 1 22 0 41-20 36-45-3-16-19-29-38-29l-141-1c-9 0-16-7-16-15v0c0-9 7-15 16-15l121 0c21 0 38-17 37-39-1-19-19-35-40-35l-80 0c-9 0-16-7-16-16v0c0-8 7-15 16-15 3 0-14 0 44 0 19 0 35-12 38-29 5-24-13-45-36-45l-342-2c-28 0-57 10-80 27l-7 6-2 291v27c41 19 186 98 189 288 0 2 0 3 2 5 0 0 2 1 3 1 9 0 18-5 26-14 11-12 17-28 18-46 3-47-5-100-22-156-3-10-2-20 4-27 6-8 14-12 24-12l272 1z m-641-256c-29 0-53-24-53-52 0-29 24-53 53-53 28 0 52 24 52 53 0 28-24 52-52 52z m0-74c-12 0-22 10-22 22 0 11 10 21 22 21 12 0 21-10 21-21 0-12-9-22-21-22z m451 573h35l2-41c0-11 7-21 17-25 10-5 22-3 31 4l73 62h187c32 0 58 25 58 57v201c0 32-26 58-58 58h-345c-32 0-58-26-58-58v-201c0-32 26-57 58-57z m-27 258c0 15 12 27 27 27h345c15 0 27-12 27-27v-201c0-15-12-27-27-27h-187c-7 0-13-2-19-7l-72-60-1 39c-1 16-14 28-30 28h-36c-15 0-27 12-27 27v201z m74-74h251c8 0 15 7 15 15 0 9-7 16-15 16h-251c-8 0-15-7-15-16 0-8 7-15 15-15z m0-83h251c8 0 15 7 15 15 0 9-7 16-15 16h-251c-8 0-15-7-15-16 0-8 7-15 15-15z" horiz-adv-x="1000" />

<glyph glyph-name="like-thumbel" unicode="&#xe83a;" d="M806 728c-3 8-7 14-14 19-6 5-14 7-22 7h-73l-23 70c-3 8-7 14-14 19-6 5-14 7-22 7-8 0-16-2-22-7-6-5-11-11-14-19l-22-70h-74c-8 0-16-2-22-7-6-5-11-11-14-19-2-7-2-16 0-23 3-8 8-14 14-19l59-43-22-70c-3-8-3-16 0-23 2-8 7-14 13-19 7-5 15-7 23-7 8 0 15 2 22 7l59 43 59-43c7-5 15-7 23-7 8 0 15 2 22 7 6 5 11 11 13 19 3 7 3 16 0 23l-22 70 59 43c7 5 11 11 14 19 2 7 2 16 0 23v0z m-111-60c-3-2-6-6-7-10-2-5-2-9 0-14l23-70-60 43c-4 3-8 5-13 5-4 0-9-2-12-5l-60-43 23 70c1 5 1 9 0 14-2 4-5 8-8 10l-60 44h74c4 0 9 1 12 4 4 2 7 6 8 10l23 71 23-71c1-4 4-8 8-10 3-3 8-4 12-4h74l-60-44z m-320-242c5 0 11 1 16 4 4 2 8 6 12 10 3 5 5 10 6 15 1 5 0 11-1 16l-17 52 44 32c6 5 10 11 12 18 3 6 3 14 0 21-2 7-6 13-12 17-6 4-13 6-20 6h-55l-17 53c-2 7-7 13-13 17-5 4-12 6-20 6-7 0-14-2-20-6-6-4-10-10-12-17l-17-53h-55c-7 0-14-2-20-6-6-4-10-10-13-17-2-7-2-15 0-21 2-7 7-13 13-18l44-32-17-52c-2-7-2-14 0-21 2-7 7-13 13-17 5-5 13-7 20-7 7 0 14 2 20 7l44 32 45-32c6-5 13-7 20-7v0z m-77 82l-37-26 14 43c2 4 2 9 0 13-1 4-4 8-7 10l-37 27h45c5 0 9 1 13 4 3 3 6 6 7 11l14 43 14-43c2-5 4-8 8-11 4-3 8-4 13-4h45l-37-27c-3-2-6-6-8-10-1-4-1-9 0-13l14-43-36 26c-4 3-8 4-13 4-4 0-8-1-12-4h0z m-55-166h-55l-17 52c-2 7-6 13-12 17-6 4-13 7-20 7-7 0-14-3-20-7-6-4-11-10-13-17l-17-52h-55c-7 0-14-3-20-7-6-4-10-10-12-17-3-7-3-14 0-21 2-7 6-13 12-17l45-33-17-52c-3-7-3-14 0-21 2-7 6-13 12-17 6-4 13-7 20-7 7 0 14 3 20 7l45 32 44-32c6-4 13-7 20-7 8 0 15 3 21 7 5 4 10 10 12 17 2 7 2 14 0 21l-17 52 44 33c6 4 11 10 13 17 2 7 2 14 0 21-2 7-7 13-13 17-5 4-12 7-20 7h0z m-61-69c-4-3-7-7-8-11-1-4-1-9 0-13l14-43-37 27c-3 2-8 4-12 4-5 0-9-2-13-4l-36-27 14 43c1 4 1 9 0 13-2 4-4 8-8 11l-37 26h46c4 0 9 2 12 4 4 3 6 7 8 11l14 43 14-43c1-4 4-8 8-11 3-2 7-4 12-4h45l-36-26z m1058 69h-55l-17 52c-2 7-7 13-12 17-6 4-13 7-21 7-7 0-14-3-20-7-6-4-10-10-12-17l-17-52h-55c-7 0-14-3-20-7-6-4-10-10-13-17-2-7-2-14 0-21 3-7 7-13 13-17l44-33-17-52c-2-7-2-14 0-21 2-7 7-13 13-17 6-4 13-7 20-7 7 0 14 3 20 7l44 32 45-32c6-4 13-7 20-7 7 0 14 3 20 7 6 4 10 10 13 17 2 7 2 14 0 21l-17 52 44 33c6 4 10 10 13 17 2 7 2 14 0 21-3 7-7 13-13 17-6 4-13 7-20 7h0z m-62-69c-3-3-6-7-7-11-2-4-2-9 0-13l14-43-37 27c-4 2-8 4-13 4-4 0-8-2-12-4l-37-27 14 43c2 4 2 9 0 13-1 4-4 8-7 11l-37 26h45c5 0 9 2 13 4 3 3 6 7 7 11l14 43 14-43c2-4 5-8 8-11 4-2 8-4 13-4h45l-37-26z m-148 153c6 0 11 1 16 4 5 2 9 6 12 10 3 5 5 10 6 15 1 5 1 11-1 16l-17 52 44 32c6 5 11 11 13 18 2 6 2 14 0 21-2 7-7 13-13 17-5 4-12 6-20 6h-55l-17 53c-2 7-6 13-12 17-6 4-13 6-20 6-7 0-14-2-20-6-6-4-11-10-13-17l-17-53h-55c-7 0-14-2-20-6-6-4-10-10-12-17-3-7-3-15 0-21 2-7 6-13 12-18l45-32-17-52c-3-7-3-14 0-21 2-7 6-13 12-17 6-5 13-7 20-7 7 0 14 2 20 7l45 32 44-32c6-5 13-7 20-7v0z m-77 82l-36-26 14 43c1 4 1 9 0 13-2 4-4 8-8 10l-37 27h46c4 0 8 1 12 4 4 3 6 6 8 11l14 43 14-43c1-5 4-8 7-11 4-3 8-4 13-4h45l-36-27c-4-2-7-6-8-10-1-4-1-9 0-13l14-43-37 26c-3 3-8 4-12 4-5 0-9-1-13-4h0z m-60-275h-149v106c0 23-9 44-25 60-16 16-37 25-60 25h-42c-5 0-10-2-14-5-4-3-6-8-7-13l-8-55c-3-24-13-48-27-69-14-20-33-37-55-49h-165c-5 0-11-2-15-6-4-4-6-9-6-15v-297c0-6 2-11 6-15 4-4 10-6 15-6h163l14-9c33-22 71-34 110-34h243c13 0 25 4 35 11 10 6 18 16 23 27 5 11 7 24 5 36-2 12-7 23-15 33 10 11 16 26 16 42 0 16-6 31-16 42 9 10 14 23 16 36 1 13-2 26-8 38 11 7 20 18 25 31 5 13 5 27 2 40-4 14-12 25-23 34-11 8-25 12-38 12z m-531-42h128v-255h-128v255z m531-43h-22c-5 0-11-2-15-6-4-4-6-9-6-15 0-5 2-11 6-15 4-4 10-6 15-6 6 0 11-2 15-6 4-4 7-10 7-15 0-6-3-11-7-15-4-4-9-6-15-6-5 0-11-3-15-7-4-4-6-9-6-15 0-5 2-11 6-15 4-4 10-6 15-6 6 0 11-2 15-6 4-4 7-9 7-15 0-6-3-11-7-15-4-4-9-6-15-6-5 0-11-3-15-7-4-3-6-9-6-14 0-6 2-12 6-15 4-4 10-7 15-7 6 0 11-2 15-6 4-4 7-9 7-15 0-6-3-11-7-15-4-4-9-6-15-6h-243c-31 0-61 9-86 26l-10 6v273c26 16 49 37 66 62 17 25 28 54 32 84l5 37h24c12 0 22-5 30-13 8-8 13-18 13-30v-127c0-6 2-11 6-15 4-4 9-6 15-6h170c5 0 11-2 15-6 4-4 6-10 6-15 0-6-2-11-6-15-4-4-10-7-15-7v0z" horiz-adv-x="1279" />

<glyph glyph-name="line-1" unicode="&#xe83b;" d="M305-149c-92 0-173 68-204 151-31 86-3 175 68 231l357 283c75 60 83 162 24 236-59 74-160 92-236 32-70-56-147-138-243-85-50 28-77 80-70 137 2 18 31 15 29-4-5-44 16-85 55-107 82-46 153 35 211 82 88 70 208 50 277-37 69-87 59-207-29-277l-357-283c-79-62-90-168-31-248 62-86 175-107 259-40l263 208c64 51 148 58 220 18 71-40 110-116 101-197-2-18-32-16-29 3 8 70-25 134-86 168-61 34-133 28-188-15l-263-208c-40-32-84-48-128-48v0z" horiz-adv-x="1000" />

<glyph glyph-name="linkedin" unicode="&#xe83c;" d="M998-145v0h0v365c0 178-38 316-247 316-100 0-168-55-195-107h-3v90h-198v-664h206v329c0 87 16 170 124 170 105 0 107-99 107-176v-323h206z m-979 664h207v-664h-207v664z m103 331c-66 0-119-53-119-119 0-66 53-121 119-121 66 0 120 55 120 121 0 66-54 119-120 119v0z" horiz-adv-x="1000" />

<glyph glyph-name="load-1" unicode="&#xe83d;" d="M500 557c-13 0-25 5-34 14-10 10-15 22-15 35v195c0 13 5 26 15 35 9 9 21 14 34 14 13 0 25-5 35-14 9-9 14-22 14-35v-195c0-13-5-25-14-35-10-9-22-14-35-14v0z m0-707c-13 0-25 5-34 14-10 9-15 22-15 35v195c0 13 5 26 15 35 9 9 21 14 34 14 13 0 25-5 35-14 9-9 14-22 14-35v-195c0-13-5-26-14-35-10-9-22-14-35-14z m-256 451h-195c-13 0-25 5-35 15-9 9-14 21-14 34 0 13 5 25 14 35 10 9 22 14 35 14h195c13 0 26-5 35-14 9-10 14-22 14-35 0-13-5-25-14-34-9-10-22-15-35-15v0z m707 0h-195c-13 0-25 5-35 15-9 9-14 21-14 34 0 13 5 25 14 35 10 9 22 14 35 14h195c13 0 26-5 35-14 9-10 14-22 14-35 0-13-5-25-14-34-9-10-22-15-35-15z m-270 181c-10 0-19 3-27 8-8 6-14 13-18 22-4 9-5 19-3 29 2 9 7 18 14 24l138 139c4 4 9 8 15 11 6 2 13 4 19 4 7 0 13-1 19-4 6-2 12-6 17-10 4-5 8-11 10-17 3-6 4-12 4-19 0-6-2-13-4-19-3-6-7-11-11-15l-139-139c-4-4-9-8-15-10-6-3-13-4-19-4z m-500-500c-10 0-19 3-27 8-8 6-14 13-18 22-4 9-5 19-3 29 2 9 7 18 14 25l138 138c4 4 10 8 15 10 6 3 13 4 19 4 7 0 13-1 19-4 6-2 11-6 16-10 4-5 8-10 10-16 3-6 4-13 4-19 0-6-1-13-4-19-2-6-6-11-10-15l-138-139c-5-4-10-8-16-10-6-3-13-4-19-4v0z m138 500c-6 0-13 1-19 4-5 2-11 6-15 10l-138 139c-5 4-9 9-12 15-2 6-4 13-4 19 0 7 1 13 4 19 2 6 6 12 11 17 4 4 10 8 16 10 6 3 12 4 19 4 6 0 13-2 19-4 6-3 11-7 16-11l138-139c7-6 11-15 13-25 2-9 1-19-3-28-3-9-10-16-18-22-8-5-17-8-27-8v0z m500-500c-6 0-13 1-19 4-6 2-11 6-15 10l-138 139c-9 9-13 21-13 34 0 12 5 24 14 33 9 9 21 14 34 14 12 0 24-4 33-12l139-138c6-7 11-16 13-25 2-10 1-20-3-29-4-9-10-16-18-22-8-5-17-8-27-8h0z" horiz-adv-x="1000" />

<glyph glyph-name="loading-1" unicode="&#xe83e;" d="M500 637c-19 0-35 15-35 35v143c0 19 16 35 35 35 20 0 35-16 35-35v-143c0-20-15-35-35-35v0z m0-787c-19 0-35 16-35 35v143c0 20 16 35 35 35 20 0 35-15 35-35v-143c0-19-15-35-35-35z m176 34c-14 0-28 9-33 22l-54 133c-7 18 1 38 19 46 18 7 39-2 46-20l54-132c8-18-1-39-19-46-4-2-9-3-13-3z m-54 729c-5 0-9 1-14 2-18 8-26 28-19 47l54 132c7 18 28 26 46 19 18-7 27-28 19-46l-54-132c-5-14-18-22-32-22z m-298-729c-4 0-9 1-13 3-18 7-27 28-19 46l54 132c7 18 28 27 46 20 18-8 27-28 19-46l-54-133c-5-13-19-22-33-22z m-254 255c-14 0-27 8-33 22-7 18 1 39 20 46l132 54c18 8 38-1 46-19 7-18-2-39-20-46l-132-54c-4-2-9-3-13-3v0z m728 297c-14 0-27 9-33 22-7 18 2 39 20 46l132 54c18 8 39-1 46-19 7-18-1-39-19-46l-132-54c-5-2-9-3-14-3v0z m-596 0c-5 0-9 1-13 3l-132 54c-19 7-27 28-20 46 7 18 28 27 46 19l132-54c18-7 27-28 20-46-6-13-19-22-33-22z m728-297c-4 0-9 1-13 3l-132 54c-18 7-27 28-20 46 8 18 28 27 47 19l132-54c18-7 26-28 19-46-6-14-19-22-33-22v0z m-202 403c-9 0-18 4-25 11-14 14-14 36 0 50l101 101c13 13 36 13 50 0 13-14 13-37 0-50l-101-101c-7-7-16-11-25-11z m-556-556c-10 0-19 3-25 10-14 14-14 37-1 51l101 100c14 14 37 14 50 0 14-13 14-36 0-50l-100-101c-7-7-16-10-25-10v0z m100 556c-9 0-18 4-25 11l-100 101c-14 13-14 36 0 50 13 13 36 13 50 0l100-101c14-14 14-36 0-50-6-7-16-11-25-11z m557-556c-9 0-19 3-25 10l-101 101c-14 14-14 37 0 50 14 14 36 14 50 0l101-100c13-14 13-37 0-51-7-7-16-10-25-10z m-651 329h-143c-19 0-35 15-35 35 0 20 16 35 35 35h143c20 0 35-15 35-35 0-20-15-35-35-35z m787 0h-143c-20 0-35 15-35 35 0 20 15 35 35 35h143c19 0 35-15 35-35 0-20-16-35-35-35z" horiz-adv-x="1000" />

<glyph glyph-name="loading-3" unicode="&#xe83f;" d="M524 616c64 0 116 52 116 117 0 65-52 117-116 117-65 0-117-52-117-117 0-65 52-117 117-117z m0-766c38 0 70 31 70 70 0 39-32 70-70 70-39 0-71-31-71-70 0-39 32-70 71-70z m-288 659c58 0 105 47 105 105 0 58-47 105-105 105-58 0-105-47-105-105 0-58 47-105 105-105z m575-528c32 0 58 26 58 58 0 33-26 59-58 59-32 0-59-26-59-59 0-32 27-58 59-58z m-694 252c52 0 94 42 94 94 0 51-42 93-94 93-52 0-94-42-94-93 0-52 42-94 94-94z m813 47c26 0 47 21 47 47 0 25-21 46-47 46-26 0-47-21-47-46 0-26 21-47 47-47z m-752-183c-32-32-32-84 0-116 32-32 84-32 116 0 32 32 32 84 0 116-32 32-84 32-116 0z m633 482c19 0 35 16 35 35 0 19-16 35-35 35-20 0-35-16-35-35 0-19 15-35 35-35z" horiz-adv-x="1000" />

<glyph glyph-name="location" unicode="&#xe840;" d="M324-119c5-7 14-12 24-12 9 0 18 5 23 12 67 100 165 224 233 350 55 100 82 186 82 262 0 186-152 338-338 338-187 0-339-152-339-338 0-76 27-162 82-262 68-126 167-250 233-350z m24 893c155 0 281-126 281-281 0-67-24-143-74-235-59-109-143-218-207-311-65 92-149 202-208 311-50 92-74 168-74 235 0 155 126 281 282 281z m0-450c93 0 169 75 169 169 0 93-76 169-169 169-94 0-170-76-170-169 0-94 76-169 170-169z m0 281c62 0 112-50 112-112 0-63-50-113-112-113-63 0-113 50-113 113 0 62 50 112 113 112z" horiz-adv-x="686" />

<glyph glyph-name="location-1" unicode="&#xe841;" d="M367 846c-97 0-189-38-258-106-68-69-106-161-106-258 0-192 324-598 338-616 3-4 7-7 11-9 5-2 10-3 15-3 5 0 10 1 14 3 4 2 8 5 12 9 13 18 338 424 338 616 0 97-39 189-107 258-68 68-161 106-257 106v0z m0-463c-26 0-52 8-74 22-22 15-38 36-49 60-10 24-12 51-7 76 5 26 18 49 36 68 19 18 42 31 68 36 26 5 52 3 76-7 25-10 45-27 60-49 14-22 22-47 22-74 0-35-14-68-39-93-25-25-58-39-93-39z" horiz-adv-x="733" />

<glyph glyph-name="location-2" unicode="&#xe842;" d="M500 850c-200 0-362-162-362-362 0-248 324-612 338-627 13-15 35-15 48 0 14 15 338 379 338 627 0 200-162 362-362 362z m0-917c-109 129-297 385-297 555 0 164 133 297 297 297 164 0 297-133 297-297 0-170-188-426-297-555z m0 737c-100 0-182-82-182-182 0-101 82-182 182-182 101 0 182 81 182 182 0 100-81 182-182 182z m0-299c-64 0-117 52-117 117 0 64 53 117 117 117 65 0 117-53 117-117 0-65-52-117-117-117z" horiz-adv-x="1000" />

<glyph glyph-name="location-3" unicode="&#xe843;" d="M500 850c-176 0-322-141-322-322 0-69 20-130 60-188l237-370c12-18 38-18 50 0l238 372c39 54 59 119 59 186 0 177-144 322-322 322z m0-469c-81 0-146 66-146 147 0 81 65 146 146 146 81 0 147-65 147-146 0-81-66-147-147-147z m229-204l-147-231c-39-59-125-59-163 0l-148 231c-130-30-210-85-210-151 0-114 226-176 439-176 213 0 440 62 440 176 0 66-81 121-211 151z" horiz-adv-x="1000" />

<glyph glyph-name="locations" unicode="&#xe844;" d="M579-35c13 0 23 10 23 23 0 12-10 23-23 23-12 0-22-11-22-23 0-13 10-23 22-23z m421 272c13 0 23 10 23 23 0 12-10 22-23 22-12 0-22-10-22-22 0-13 10-23 22-23z m-842 0c13 0 23 10 23 23 0 12-10 22-23 22-12 0-22-10-22-22 0-13 10-23 22-23z m842 158c-75 0-135-61-135-135 0-19 4-38 11-54l-13-8c-5-4-9-9-10-15-2-6 0-12 3-17 4-6 11-10 19-10 4 0 8 1 12 4l13 8c25-27 61-44 100-44 75 0 136 61 136 136 0 74-61 135-136 135z m0-226c-50 0-90 41-90 91 0 49 40 90 90 90 50 0 91-41 91-90 0-50-41-91-91-91z m-421 407c-87 0-158-71-158-158 0-81 127-225 142-241 4-5 10-8 16-8 7 0 13 3 17 8 15 16 142 160 142 241 0 87-71 158-159 158v0z m0-350c-49 59-113 149-113 192 0 62 51 113 113 113 63 0 114-51 114-113 0-43-64-133-114-192z m0 260c-37 0-67-31-67-68 0-37 30-68 67-68 38 0 68 31 68 68 0 37-30 68-68 68z m0-91c-12 0-22 10-22 23 0 12 10 23 22 23 13 0 23-11 23-23 0-13-10-23-23-23z m421 46c7 0 13 2 17 7 15 16 142 160 142 242 0 87-71 158-159 158-87 0-158-71-158-158 0-82 127-226 142-242 4-5 10-7 16-7z m0 362c63 0 114-51 114-113 0-44-64-134-114-192-49 58-113 148-113 192 0 62 51 113 113 113v0z m68-113c0 37-30 67-68 67-37 0-68-30-68-67 0-38 31-68 68-68 38 0 68 30 68 68z m-90 0c0 12 10 22 22 22 13 0 23-10 23-22 0-13-10-23-23-23-12 0-22 10-22 23z m-820 158c-87 0-158-71-158-158 0-82 127-226 142-242 4-5 10-7 16-7 7 0 13 2 17 7 15 16 142 160 142 242 0 87-71 158-159 158z m0-350c-49 58-113 148-113 192 0 62 51 113 113 113 63 0 114-51 114-113 0-44-64-134-114-192z m0 259c-37 0-67-30-67-67 0-38 30-68 67-68 38 0 68 30 68 68 0 37-30 67-68 67z m0-90c-12 0-22 10-22 23 0 12 10 22 22 22 13 0 23-10 23-22 0-13-10-23-23-23z m138-469l-13 8c7 16 11 35 11 54 0 74-61 135-136 135-74 0-135-61-135-135 0-75 61-136 135-136 40 0 76 17 101 44l13-8c3-3 8-4 12-4h0c8 0 15 4 19 10 7 11 4 25-7 32z m-138-29c-49 0-90 41-90 91 0 49 41 90 90 90 50 0 91-41 91-90 0-50-41-91-91-91z m212-68c12 0 22 10 22 22 0 13-10 23-22 23-13 0-23-10-23-23 0-12 10-22 23-22z m334-10c-5 0-9-1-13-4l-11-7c-25 27-61 44-101 44-39 0-75-17-100-44l-12 7c-3 3-8 4-12 4-8 0-15-4-19-11-7-10-4-24 7-31l12-7c-7-17-11-35-11-54 0-75 61-136 135-136 75 0 136 61 136 136 0 19-4 37-11 54l12 7c10 7 13 21 7 31-4 7-12 11-19 11v0z m-125-194c-49 0-90 41-90 91 0 50 41 90 90 90 50 0 91-40 91-90 0-50-41-91-91-91z m210 204c13 0 23 10 23 22 0 13-10 23-23 23-12 0-22-10-22-23 0-12 10-22 22-22z" horiz-adv-x="1159" />

<glyph glyph-name="location-tracker" unicode="&#xe845;" d="M183-83c5 0 10 2 13 6 7 9 171 214 171 310 0 102-82 184-184 184-101 0-183-82-183-184 0-96 163-301 170-310 4-4 8-6 13-6z m0 466c83 0 150-67 150-150 0-64-98-206-150-273-51 67-150 209-150 273 0 83 68 150 150 150z m67-133c0 37-30 67-67 67-36 0-66-30-66-67 0-37 30-67 66-67 37 0 67 30 67 67z m-100 0c0 18 15 33 33 33 19 0 34-15 34-33 0-18-15-33-34-33-18 0-33 15-33 33z m717 250c5 0 9 2 12 6 13 14 121 142 121 211 0 73-60 133-133 133-74 0-134-60-134-133 0-69 109-197 121-211 3-4 8-6 13-6z m0 317c55 0 100-45 100-100 0-43-64-130-100-174-37 44-100 131-100 174 0 55 45 100 100 100z m50-84c0 28-23 50-50 50-28 0-50-22-50-50 0-27 22-50 50-50 27 0 50 23 50 50z m-67 0c0 10 8 17 17 17 9 0 16-7 16-17 0-9-7-16-16-16-9 0-17 7-17 16z m0-300h17c9 0 16 8 16 17 0 9-7 17-16 17h-17c-9 0-17-8-17-17 0-9 8-17 17-17z m-217-100h34c9 0 17 8 17 17 0 9-8 17-17 17h-34c-4 0-9-2-12-5-3-3-4-8-4-12 0-9 7-17 16-17v0z m187 17c0-9 8-17 17-17h34c9 0 17 8 17 17 0 9-8 17-17 17h-34c-9 0-17-8-17-17z m-72 83h34c9 0 17 8 17 17 0 9-8 17-17 17h-34c-9 0-16-8-16-17 0-9 7-17 16-17z m-444-550h-34c-10 0-17-7-17-16 0-10 7-17 17-17h34c9 0 16 7 16 17 0 9-7 16-16 16z m280 490c2 0 3 0 4 0 9 2 15 11 13 20-1 2-1 5-1 7 0 5 1 11 4 15 4 8 1 18-8 23-8 4-18 1-22-8-7-13-9-29-6-44 2-7 9-13 16-13v0z m151-40h34c9 0 17 8 17 17 0 9-8 17-17 17h-34c-9 0-17-8-17-17 0-9 8-17 17-17z m-89 100h34c9 0 17 8 17 17 0 9-8 17-17 17h-34c-9 0-16-8-16-17 0-9 7-17 16-17z m-164-289c1-1 2-1 4-1 7 0 14 5 16 13 2 8 6 16 12 23 4 5 5 11 3 17-2 6-7 10-13 11-6 1-12-2-16-6-9-11-15-24-19-37-1-4 0-9 2-13 3-3 6-6 11-7v0z m329-260c-4 0-7-1-11-1h-21c-9 0-17-7-17-16 0-10 8-17 17-17h21c5 0 10 0 15 1 9 1 16 9 14 19-1 9-9 15-18 14h0z m23 194c-11 4-22 5-34 5h-4c-10 0-17-7-17-16 0-9 7-17 17-17h4c8 0 16-1 24-4 2 0 4 0 5 0 8 0 16 6 17 14 1 8-4 16-12 18v0z m-35 122c9 0 16 8 16 17 0 9-7 16-16 16h-34c-10 0-17-7-17-16 0-9 7-17 17-17h34z m99-259c-8 4-18 0-22-9-4-8-9-16-16-23-4-4-6-10-4-16 2-6 6-10 12-12 6-1 12 1 16 5 10 10 17 21 22 33 4 8 1 18-8 22v0z m87 339c-4 2-8 1-12-1-4-2-7-6-8-10-3-8-7-15-13-21-7-7-7-17-1-24 7-7 17-7 24 0 10 10 18 22 22 36 1 4 0 9-2 12-2 4-5 7-10 8v0z m-19 31c7 0 13 4 16 10 2 6 1 13-3 18-10 11-22 19-35 23-9 3-18-1-21-10-3-9 1-18 10-21 8-3 15-8 21-14 3-4 8-6 12-6z m-238-228h-34c-9 0-17-7-17-16 0-9 8-17 17-17h34c9 0 16 8 16 17 0 9-7 16-16 16z m172 150h-34c-9 0-16-7-16-16 0-9 7-17 16-17h34c10 0 17 8 17 17 0 9-7 16-17 16z m-494-350h-34c-10 0-17-7-17-16 0-10 7-17 17-17h34c9 0 16 7 16 17 0 9-7 16-16 16z m491 149c-6 8-16 10-24 5-7-6-9-16-4-24 5-7 9-16 12-25 1-6 5-11 11-13 6-1 13 0 17 5 4 4 6 10 4 16-3 13-9 25-16 36v0z m-364 57c-8 4-15 10-21 17-5 7-16 9-23 3-7-6-9-16-3-24 8-10 19-19 32-26 8-3 18 0 22 8 4 8 1 18-7 22v0z m-26-206h-34c-9 0-16-7-16-16 0-10 7-17 16-17h34c10 0 17 7 17 17 0 9-7 16-17 16z m204 0h-34c-9 0-16-7-16-16 0-10 7-17 16-17h34c9 0 17 7 17 17 0 9-8 16-17 16z m-116 317c9 0 16 8 16 17 0 9-7 16-16 16h-34c-9 0-17-7-17-16 0-9 8-17 17-17h34z m102 0c9 0 16 8 16 17 0 9-7 16-16 16h-34c-10 0-17-7-17-16 0-9 7-17 17-17h34z m-71-117h-34c-9 0-17-7-17-16 0-9 8-17 17-17h34c9 0 17 8 17 17 0 9-8 16-17 16z m-17-200h-34c-9 0-16-7-16-16 0-10 7-17 16-17h34c10 0 17 7 17 17 0 9-7 16-17 16z m-409 0h-17c-9 0-16-7-16-16 0-10 7-17 16-17h17c9 0 17 7 17 17 0 9-8 16-17 16z" horiz-adv-x="1000" />

<glyph glyph-name="love-group-1" unicode="&#xe846;" d="M946 850h-62c-18 0-19-29 0-29h62c14 0 25-11 25-25v-321c0-13-11-24-25-24h-44c-8 0-15-7-15-15v-39l-50 50c-2 2-6 4-10 4h-285v108c0 30-25 54-55 54v183c0 14 11 25 25 25h289c18 0 19 29 0 29h-289c-30 0-54-24-54-54v-183h-404c-30 0-54-24-54-54v-321c0-29 24-53 54-53h30v-61c0-12 15-19 25-10l70 71h115v-207c0-29 24-53 54-53h309l71-71c9-9 25-2 25 11v60h29c30 0 54 24 54 53v322c0 29-24 53-54 53h-240v69h279l71-71c9-9 25-2 25 10v61h29c30 0 54 24 54 53v321c0 30-24 54-54 54v0z m-652-550v-9c-10-5-18-9-23-11-10 4-31 14-54 29-16 11-33-13-17-24 35-23 64-34 66-35 3-1 7-1 10 0 1 0 8 3 18 8v-44h-121c-4 0-8-2-10-4l-50-50v39c0 8-7 15-15 15h-44c-14 0-25 11-25 24v321c0 14 11 25 25 25h434c14 0 25-11 25-25v-206h-99c19 27 29 56 29 86 0 54-44 99-98 99-29 0-56-13-74-35-18 22-45 35-74 35-54 0-98-45-98-99 0-35 14-69 40-100 12-14 35 4 22 18-21 26-32 54-32 82 0 38 30 69 68 69 26 0 49-14 61-38 2-5 8-7 13-8 6 0 11 3 13 8 33 65 129 41 129-31 0-30-12-59-36-86h-29c-30 0-54-24-54-53v0z m488 24c14 0 25-11 25-24v-322c0-13-11-24-25-24h-44c-8 0-15-7-15-15v-39l-49 50c-3 3-7 4-11 4h-315c-13 0-24 11-24 24v322c0 13 11 24 24 24h434z m-50 460c-5 0-10-3-13-8l-38-72c-3-5-7-10-13-13-6 10-18 17-31 17h-24c-20 0-36-16-36-36v-148c0-20 16-36 36-36h24c15 0 28 9 33 22 7-2 14-4 23-4h125c20 0 38 14 43 34l27 101c7 25-15 50-40 50h-57c-3 0-6 3-6 7v33c0 29-24 53-53 53v0z m-88-260c0-4-3-6-7-6h-24c-4 0-7 2-7 6v148c0 4 3 7 7 7h24c4 0 7-3 7-7v-148z m147 138h57c7 0 13-7 12-14l-27-101c-2-7-8-11-15-11h-125c-7 0-13 1-20 5v121c15 4 28 15 34 29l33 62c9-3 16-12 16-22v-33c0-20 16-36 35-36v0z m-352-579c29 0 52 23 52 52-3 69-101 69-104 0 0-29 23-52 52-52z m0 75c12 0 23-11 23-23-2-30-44-30-46 0 0 12 10 23 23 23v0z m126-75c29 0 52 23 52 52-3 69-101 69-104 0 0-29 24-52 52-52z m0 75c13 0 23-11 23-23-1-30-44-30-45 0 0 12 10 23 22 23z m127-75c28 0 51 23 51 52-2 69-101 69-103 0 0-29 23-52 52-52z m0 75c12 0 22-11 22-23-1-30-44-30-45 0 0 12 10 23 23 23z" horiz-adv-x="1000" />

<glyph glyph-name="man" unicode="&#xe847;" d="M413 506c0 17-10 30-24 30-14 0-24-13-24-30 0-17 10-30 24-30 14 0 24 13 24 30z m158-30c14 0 24 13 24 30 0 17-10 30-24 30-13 0-24-13-24-30 0-17 11-30 24-30z m-75-71c1 0 3 0 4 0 8 1 15 8 14 16 0 8-7 14-15 14-7 0-20 0-24 6-5 8 1 28 7 38 3 7 1 16-6 20-8 4-17 1-20-6-3-4-22-42-6-67 9-14 24-21 46-21z m-92-15c-7-5-9-14-4-21 1-1 29-44 80-44 51 0 79 43 80 44 5 7 3 16-4 21-7 4-16 2-20-4-1-1-21-31-56-31-34 0-55 30-55 31-5 6-14 8-21 4v0z m-205-511h-164c1 11 4 25 8 40 7 26 20 62 44 82 43 35 225 132 284 164 11-51 56-88 109-88 53 0 98 37 109 88 22-12 62-33 104-57 7-3 16-1 20 6 4 7 1 16-6 20-51 29-98 53-116 63v69c4 3 7 6 11 10 16 18 30 40 41 67 5-1 10-1 15-1 23 0 44 11 59 31 27 36 31 98 9 129-1 1-2 3-3 4 26 91 18 168-24 229-60 87-170 113-207 115-52 3-89-26-105-43-21 13-44 15-67 7-39-13-73-56-89-113-3-12-5-26-6-42-1-8 6-15 14-15 8-1 15 5 15 13 1 14 3 26 6 36 13 47 40 84 70 94 17 5 34 2 50-11 7-5 16-3 21 3 0 1 35 45 90 41 30-2 131-24 184-102 35-51 43-116 22-193-7 2-16 3-25 2 0 5 0 7 0 8-1 6-5 11-11 13-160 45-230 149-231 150-3 5-8 7-14 7-5-1-10-4-12-10-36-93-110-150-111-151-3-2-5-6-6-10 0-1 0-3 0-7-9 1-17 0-25-3-4 29-6 55-8 79 0 8-7 14-15 14-8-1-15-8-14-16 1-29 5-61 11-97-1-1-1-1-2-2-22-31-18-92 9-129 15-20 36-31 59-31 5 0 10 0 15 1 11-27 25-50 42-68 4-3 7-6 10-9v-69c-44-23-251-133-300-173-58-46-65-154-65-158-1-9 6-16 14-16h181c8 0 15 7 15 15 0 8-7 14-15 14v0z m469 560c2 22 4 41 4 57 16 5 24-3 30-11 14-19 12-66-8-94-11-15-24-21-41-19 6 20 11 42 15 67z m-106-251c0-45-37-82-82-82-45 0-82 37-82 82v56c24-13 52-19 82-19h1c30 0 57 7 81 20v-57z m-296 203c-20 28-21 75-8 94 8 11 17 15 29 12 1-17 2-37 5-59 4-24 9-46 15-67-17-1-30 5-41 20z m51 134c17 15 70 63 105 136 29-34 99-101 221-138 0-37-2-162-63-227-26-28-59-42-99-42-41 0-74 14-100 41-64 68-65 200-64 230v0z m640-659c-1 4-8 112-66 158-18 15-63 43-132 82-7 4-16 1-20-6-4-7-2-16 5-20 85-47 117-69 129-79 36-29 48-92 52-122h-667c-8 0-15-6-15-14 0-8 7-15 15-15h684c8 0 15 7 15 16v0z" horiz-adv-x="960" />

<glyph glyph-name="management" unicode="&#xe848;" d="M934 71h-59c1 2 2 5 2 8l36 214c1 7 1 13-1 20-2 6-5 12-9 17-5 5-10 9-16 12-6 3-13 5-19 5h-247c-14 0-28-6-40-15-11-9-18-22-20-37l-28-163h-12v67c0 29-9 56-25 80-16 23-39 40-66 50l-78 28v13c27 9 50 27 67 50 16 23 25 51 25 80v199c0 4-1 8-4 11-3 3-7 4-11 4h-184c-20 0-40-8-54-22-14-15-22-34-22-54v-64c-9-3-17-9-23-17-5-8-8-17-8-27 0-10 3-19 9-27 5-7 13-13 22-16 3-32 17-62 40-85 6-6 13-12 21-17v-28l-78-28c-26-10-49-27-66-50-16-24-25-51-25-80v-82c0-17 6-33 16-46h-31c-4 0-8-2-11-5-3-3-4-6-4-11v-61c0-4 1-8 4-11 3-3 7-4 11-4h31v-77c0-4 1-8 4-11 3-3 7-4 11-4h797c4 0 7 1 10 4 3 3 5 7 5 11v77h30c5 0 8 1 11 4 3 3 5 7 5 11v61c0 5-2 8-5 11-3 3-6 5-11 5z m-66 245c2 0 4-1 6-2 2 0 4-2 5-3 2-2 3-4 3-6 1-3 1-5 1-7l-36-214c-1-4-2-7-5-10-3-2-6-3-10-3h-216l40 245h212z m-277-26c1 7 5 14 10 19 6 4 13 7 20 7h4l-41-245h-30l37 219z m-63-189l-5-30h-109c-4 0-8 1-11 4-3 3-5 7-5 11v15h130z m-329 537c0 12 5 23 14 32 8 9 20 13 32 14h169v-50c-9-1-18-3-26-4-22-5-44-8-66-8-14-1-28 2-41 7-16 6-34 9-51 9-4 0-8-2-11-5-3-3-4-7-4-11v-30c0-4-2-8-5-11-3-3-7-5-11-5v62z m0-138c0 4-1 8-4 11-3 2-7 4-11 4-4 0-8 2-11 5-3 2-4 6-4 10 0 4 1 8 4 11 3 3 7 5 11 5h15c12 0 24 5 33 13 8 9 13 20 13 33v14c9 0 17-2 25-6 17-6 34-9 52-8 24 0 48 2 72 8 6 1 13 2 20 3v-103c0-14-3-28-9-41-5-13-13-25-23-35-10-10-22-18-35-23-13-6-26-9-41-9-14 0-28 3-41 9-13 5-24 13-34 23-10 10-18 22-24 35-5 13-8 27-8 41z m123-137v-16c0-9-3-16-9-22-6-6-14-9-22-9-8 0-16 3-22 9-5 6-9 13-9 22v23c15-5 31-8 46-8 6 0 11 0 16 1z m-230-164c0 22 7 44 19 62 13 18 31 32 52 39l71 26c4-12 12-22 22-30 10-7 22-11 35-11 13 0 25 4 35 11 11 8 18 18 23 30l71-26c20-7 38-21 51-39 12-18 19-40 19-62v-67h-46v92h-30v-92h-31c-4 0-8-2-11-4-3-3-4-7-4-11v-31c0-5 1-10 2-15h-79c0 20-8 40-22 54-15 14-34 22-54 22h-46v77h-31v-92c0-4 2-8 4-11 3-3 7-4 11-4h31v-46h-46c-12 0-24 5-33 13-8 9-13 21-13 33v82z m168-128h-45v46c12 0 23-5 32-14 9-8 13-20 13-32z m613-153h-766v61h766v-61z m46 92h-858v30h858v-30z m-168 137c9 0 18 3 25 8 8 5 14 12 17 21 4 8 5 17 3 26-2 9-6 17-13 24-6 6-14 11-23 12-9 2-19 1-27-2-8-4-15-10-21-17-5-8-7-17-7-26 0-12 5-24 13-32 9-9 20-14 33-14z m0 62c3 0 6-1 8-3 3-2 5-4 6-7 1-3 1-6 1-9-1-3-2-5-5-7-2-3-4-4-7-5-3 0-6 0-9 1-3 1-5 3-7 6-2 2-3 5-3 8 0 4 2 8 5 11 3 3 7 5 11 5z m-460 352h-31v-31h31v31z m92 0h-31v-31h31v31z m120-15l41-6c3-9 7-17 11-25l-25-33c-2-3-3-7-3-11 0-3 2-7 4-9l44-44c2-2 6-4 9-4 4 0 8 1 11 3l33 25c8-4 16-8 25-11l6-41c0-3 2-7 5-9 3-3 6-4 10-4h61c4 0 8 1 10 4 3 2 5 6 6 9l5 41c9 3 17 7 25 11l34-25c3-2 6-3 10-3 4 0 7 2 10 4l43 44c3 2 4 6 4 9 1 4 0 8-3 11l-24 33c4 8 7 16 10 25l41 6c4 0 7 2 9 5 3 3 4 6 4 10v61c0 4-1 8-4 10-2 3-5 5-9 5l-41 6c-3 9-6 17-10 25l24 34c3 3 4 6 3 10 0 4-1 7-4 10l-43 43c-3 3-6 4-10 4-4 1-7 0-10-3l-34-25c-8 5-16 8-25 11l-5 41c-1 4-3 7-6 9-2 3-6 4-10 4h-61c-4 0-7-1-10-4-3-2-5-5-5-9l-6-41c-9-3-17-6-25-11l-33 25c-3 3-7 4-11 3-3 0-7-1-9-4l-44-43c-2-3-4-6-4-10 0-4 1-7 3-10l25-34c-4-8-8-16-11-25l-41-6c-3 0-7-2-9-5-2-2-4-6-4-10v-61c0-4 2-7 4-10 2-3 6-5 9-5z m18 63l38 5c3 1 5 2 8 4 2 2 4 5 4 8 4 12 9 25 15 36 2 2 3 5 2 8 0 4-1 6-3 9l-23 30 25 25 30-23c3-2 6-3 9-3 3 0 6 1 8 2 12 7 24 12 37 15 3 1 5 2 7 5 2 2 4 5 4 8l5 37h35l5-37c1-3 2-6 4-8 2-3 5-4 8-5 13-3 25-8 36-15 3-1 6-2 9-2 3 0 6 1 8 3l30 23 25-25-23-30c-2-3-3-5-3-9 0-3 1-6 2-8 7-11 12-24 15-36 1-3 2-6 5-8 2-2 5-3 8-4l38-5v-35l-38-5c-3-1-6-2-8-4-3-2-4-5-5-8-3-12-8-24-15-36-1-2-2-5-2-8 0-3 1-6 3-9l23-30-25-25-30 23c-2 2-5 3-8 3-3 0-6 0-9-2-11-7-23-12-36-15-3-1-6-2-8-4-2-3-3-5-4-8l-5-38h-35l-5 38c0 3-2 5-4 8-2 2-4 3-7 4-13 3-25 8-37 15-2 2-5 2-8 2-3 0-6-1-9-3l-30-23-25 25 23 30c2 3 3 6 3 9 1 3 0 6-2 8-6 12-11 24-15 36 0 3-2 6-4 8-3 2-5 3-8 4l-38 5v35z m184-109c18 0 36 5 51 15 15 10 27 25 34 41 7 17 8 36 5 54-4 17-12 34-25 47-13 12-30 21-47 25-18 3-37 1-53-5-17-7-32-19-42-34-10-15-15-33-15-51 0-25 10-48 27-65 17-18 40-27 65-27z m0 153c12 0 24-4 34-10 10-7 18-17 22-28 5-11 6-23 4-35-3-12-8-23-17-32-9-8-19-14-31-16-12-3-25-2-36 3-11 5-21 13-27 23-7 10-11 22-11 34 0 16 7 31 18 43 12 11 27 18 44 18z m-383-230c16 0 32 7 43 18 12 12 18 27 18 43h-31c0-8-3-16-9-21-5-6-13-9-21-9-8 0-16 3-22 9-6 5-9 13-9 21h-31c0-16 7-31 18-43 12-11 27-18 44-18z" horiz-adv-x="980" />

<glyph glyph-name="manager-1" unicode="&#xe849;" d="M762 210l-165 55v33c35 24 62 59 74 101 40 5 71 39 71 80v145c0 125-101 226-226 226-75 0-145-37-187-99-42-13-71-52-71-96v-176c0-41 31-75 71-80 12-42 39-77 74-101v-33l-164-55c-47-15-78-58-78-107v-253h678v253c0 49-31 92-77 107v0z m-85-112l-34-34 17-50-72-108 54 310 21-7 14-111z m-353 0l13 111 21 7 54-310-72 108 17 50-33 34z m176 68l45-45-23-45h-44l-23 45 45 45z m69-69l16-16-26-151-10 127 20 40z m-138 0l20-40-10-127-26 151 16 16z m52-53h34l14-162h-62l14 162z m128 182l-19-107-68 68 60 48 27-9z m66 207c0 5 0 9 0 14v77c19-6 33-24 33-45 0-21-14-39-33-46z m-387 46c0 21 14 39 33 45v-77c0-5 0-9 0-14-19 7-33 25-33 46z m33 161v-82c-12-2-23-8-33-15v112c0 31 22 59 53 67l6 1 5 8c36 55 97 87 162 87 107 0 194-87 194-194v-81c-10 7-21 13-33 15v50h-32v-44c-43 11-84 30-119 57l-16 12-8-18c-8-16-11-34-9-52l-8 1c-49 7-96 27-137 57l-25 19z m32-193v131c38-24 81-39 126-46l63-9-13 28c-5 10-7 21-6 31 36-24 77-41 120-51v-84c0-80-65-145-145-145-80 0-145 65-145 145z m145-178c23 0 45 5 65 13v-21l-65-52-64 52v21c20-8 41-13 64-13z m-84-34l60-48-68-68-19 107 27 9z m-222-132c0 35 22 65 55 76l54 19-13-112 30-31-15-46 84-127h-195v221z m613-221h-196l84 127-15 46 31 31-14 112 54-19c33-11 56-41 56-76v-221z m-371 629c0-9-8-16-17-16-8 0-16 7-16 16 0 9 8 16 16 16 9 0 17-7 17-16z m161 0c0-9-7-16-16-16-9 0-16 7-16 16 0 9 7 16 16 16 9 0 16-7 16-16z m-32-96h-33c0-18-14-33-32-33-18 0-32 15-32 33h-32c0-36 28-65 64-65 36 0 65 29 65 65z m-339-436h64v-32h-64v32z" horiz-adv-x="1000" />

<glyph glyph-name="map" unicode="&#xe84a;" d="M1324 275l30 1c7 0 15 4 20 9l31 34c9 9 11 22 5 33l-22 44 49 30c6 4 11 10 13 17l20 67c4 14-3 30-17 36l-30 12 4 23 34 14c8 4 14 10 17 19l5 15 39-46c5-7 14-11 22-11 17 0 30 14 30 30l0 53-1 57c-1 37-32 68-70 68-3 0-6 0-8 0l-291-35 2 5c3 9 2 19-4 27-5 8-14 13-23 13l-37 2c-10 0-19-4-25-12l-91-121-80-40-66 34c-4 2-9 3-14 3-8 0-16-3-22-9l-61-66c-8-8-10-20-6-31l11-29-39-37-38-22c-10-6-16-18-14-30l3-21c2-14 15-25 29-25 5 0 9 1 13 2l32 15 39 17 41-29c4-2 8-4 12-5l62-12v-15l-129 19c-5 1-11 0-15-2l-85-33c-9-3-16-11-18-21l-16-74c-3-11 1-22 9-29l39-35c6-5 14-8 23-7l75 8 2-112c0-3 0-6 1-8l14-46c8-27 33-46 62-46 25 0 47 14 58 35l103 199c7 12 4 26-6 35l-13 13 21 7c10 3 17 11 19 21 3 10 0 21-7 28l-31 31 2 2 64-41 52-75c6-8 15-13 25-13 11 0 21 6 26 16l23 46 52-37c5-4 11-6 17-6 9 0 18 4 23 11 6 7 8 15 7 24l-1 6z m-403-253c-6-12-18-19-31-19-15 0-29 10-33 25l-14 45-2 112c0 9-4 17-10 22-7 6-15 8-23 7l-75-7-39 34 16 74 85 33 140-21 56-72c1-2 34-34 34-34l-104-199z m379 271c-5-6-7-15-6-23l1-5-51 36c-5 4-11 6-18 6-11 0-21-7-26-17l-23-45-52 75c-2 3-5 6-8 8l-65 42c-5 3-10 4-16 4-9 0-17-3-22-10l-3-2c-10-12-10-30 1-41l31-31-34-11-51 67v28c0 14-10 27-24 30l-63 12-40 28c-9 6-20 7-29 3l-40-17-32-14-4 20 38 22c2 1 4 2 5 4l40 37c8 8 11 21 7 32l-11 30 61 65 66-34c4-2 9-3 14-3 4 0 9 1 13 3l80 40c4 2 8 5 11 9l91 121 36-1-2-6c-3-9-2-19 4-27 6-9 17-14 28-13l291 35c2 0 3 0 5 0 22 0 39-17 40-39l1-57 0-51-39 46c-5 6-14 10-22 10-13 0-25-8-29-21l-5-15-33-14c-10-4-17-13-18-23l-4-23c-3-13 4-27 17-32l30-13-20-67-48-30c-14-8-19-24-12-38l22-44-31-33-30-1c-8-1-16-5-22-12z m287-261l-35 66c-6 10-16 16-27 16-10 0-19-5-25-13l-9 12c-5 7-14 11-23 11-5 0-11-2-15-4l-83-50c-8-5-13-13-14-22l-7-62c-1-8 1-17 7-23 6-8 16-11 26-10l70 9 11-26c5-12 16-19 28-19 0 0 0 0 0 0 1 0 3 0 5 1l38 6c10 2 18 8 22 17l31 64c4 8 4 19 0 27z m-58-78l-38-7-11 27c-5 11-16 18-28 18-1 0-2 0-3 0l-71-9 7 61 83 50 9-12c6-7 14-11 23-11 10 0 20 5 25 13l35-66-31-64z m-952 195l-142 92c-8 5-17 8-26 8-15 0-29-7-38-19l-32 18-56 81h29c7 0 13 2 19 7l107 88 60 34c7 4 13 11 14 19 2 9 1 17-4 24l-53 76c-6 8-15 13-25 13-10 0-20-6-25-14l-27-44-32 35 63 46c11 8 15 24 9 36l-15 33c-4 7-11 13-19 15-7 3-16 2-23-3l-27-15-123 52-88 49c-11 6-24 5-34-3l-46-38c-5-4-8-8-9-13l-32-87c-4-9-2-19 3-27 6-8 15-13 24-13l67-2 43-105-7-105c0-6 1-12 5-18l57-89c3-6 8-10 14-12l111-42c1-1 2-2 3-3l32-18-17-26c-6-9-7-21-1-31l36-66-5-161c0-7 2-13 6-19l30-38c5-7 14-11 23-11 8 0 16 3 22 9 5 5 8 13 8 21l-1 54 110 105c4 4 7 9 8 14l16 61c4 12-2 25-12 32z m-358 147l-57 89 7 105c0 4 0 9-2 13l-43 105c-4 11-15 19-27 19l-67 2 32 87 46 38 88-50c1 0 2-1 3-1l123-52c8-4 18-3 26 2l27 16 16-32-62-46c-7-5-11-13-12-21-1-8 1-17 7-23l31-35c6-7 16-11 25-10 9 0 18 5 23 14l27 44 53-76-60-34c-1-1-2-2-4-3l-107-88c0 0-34 0-34 0-10 0-19-6-24-15-5-10-4-21 2-29l31-45-68 26z m325-232l-110-106c-6-5-9-13-9-22l1-53-29 37 5 161c0 6-1 11-4 16l-36 66 32 48c3 5 9 8 15 8 3 0 7-1 10-3l141-92-16-60z m-33 675l16-12v-148c0-16 14-30 30-30 6 0 12 2 17 5l102 67c6 4 11 11 13 18l34 144c2 10-1 21-9 29l-32 28c-8 7-21 9-31 5l-133-54c-10-4-17-13-18-24-2-11 3-21 11-28z m151 78l32-27-35-144-102-66v147c0 9-4 18-11 24l-16 12 132 54z" horiz-adv-x="1590" />

<glyph glyph-name="maps-and-flags-1" unicode="&#xe84b;" d="M500 850c-200 0-362-162-362-362 0-248 324-612 338-627 13-15 35-15 48 0 14 15 338 379 338 627 0 200-162 362-362 362z m0-544c-100 0-182 81-182 182 0 100 82 182 182 182 101 0 182-82 182-182 0-101-81-182-182-182z" horiz-adv-x="1000" />

<glyph glyph-name="meeting-1" unicode="&#xe84c;" d="M947 444c32 24 53 63 53 106 0 74-60 133-133 133-74 0-134-59-134-133 0-40 18-75 46-100h-89l-111 112c-7 6-18 6-24 0l-67-67c-6-6-6-17 0-23l150-150c3-4 8-5 12-5h133v-117h-83-202l83 124-28 19-95-143h-41v83c0 10-8 17-17 17h-133v67c0 35-22 65-53 77 32 24 53 63 53 106 0 74-60 133-134 133-73 0-133-59-133-133 0-43 21-82 53-106-31-12-53-42-53-77v-234c0-46 37-83 83-83v-200h34v200h116v-183c0-10 8-17 17-17h117c9 0 16 7 16 17v250c0 18-6 36-16 50h16 17 83v-284h-66v-33h166v33h-66v284h117c-11-14-17-31-17-50v-250c0-10 7-17 16-17h117c9 0 17 7 17 17v183h116v-200h34v200c46 0 83 37 83 83v234c0 35-22 65-53 77z m-914 106c0 55 45 100 100 100 56 0 100-45 100-100 0-55-44-100-100-100-55 0-100 45-100 100z m350-350h-216v133h-34v-150c0-9 8-16 17-16h150c28 0 50-23 50-50v-234h-83v184c0 9-8 16-17 16h-167c-27 0-50 23-50 50v234c0 27 23 50 50 50h100c28 0 50-23 50-50v-84c0-9 8-16 17-16h133v-67z m384 350c0 55 45 100 100 100 55 0 100-45 100-100 0-55-45-100-100-100-55 0-100 45-100 100z m200-417c0-27-23-50-50-50h-167c-9 0-17-7-17-16v-184h-83v234c0 27 22 50 50 50h100c9 0 17 7 17 16v150c0 10-8 17-17 17h-143l-133 133 43 43 105-104c3-4 7-5 11-5h234c27 0 50-23 50-50v-234z m-300 717h-334c-27 0-50-22-50-50v-133c0-28 23-50 50-50h17v-100c0-7 4-13 10-16 2-1 5-1 7-1 4 0 8 2 12 5l111 112h177c27 0 50 22 50 50v133c0 28-23 50-50 50z m16-183c0-9-7-17-16-17h-184c-4 0-8-2-11-5l-89-88v76c0 10-7 17-16 17h-34c-9 0-16 8-16 17v133c0 9 7 17 16 17h334c9 0 16-8 16-17v-133z m-233 116h-100v-33h100v33z m200-66h-300v-34h300v34z m0 66h-167v-33h167v33z" horiz-adv-x="1000" />

<glyph glyph-name="messages-1" unicode="&#xe84d;" d="M941 252l-147 147h-343c-13 0-26 5-35 14-9 10-14 22-14 35v294c0 13 5 26 14 35 9 9 22 14 35 14h441c13 0 26-5 35-14 9-9 14-22 14-35v-490z m-343-49v-98c0-13-5-26-14-35-9-9-22-14-35-14h-343l-147-147v490c0 13 5 26 14 35 9 9 22 14 35 14h98" horiz-adv-x="1000" />

<glyph glyph-name="minus" unicode="&#xe84e;" d="M7750 350c0-276-217-500-484-500h-6782c-267 0-484 224-484 500 0 276 217 500 484 500h6782c267 0 484-224 484-500z" horiz-adv-x="7750" />

<glyph glyph-name="mony-bag" unicode="&#xe84f;" d="M463 222h-57c-21 0-38 17-38 38 0 21 17 38 38 38h101c13 0 25 11 25 25 0 13-12 25-25 25h-48v34c0 14-11 25-24 25-14 0-25-11-25-25v-34h-4c-48 0-87-40-87-88 0-48 39-87 87-87h57c21 0 38-17 38-38 0-21-17-38-38-38h-102c-14 0-25-11-25-25 0-13 11-25 25-25h49v-35c0-14 11-25 25-25 13 0 25 11 25 25v35h4c0 0 0 0 0 0 48 1 87 40 87 88 0 48-40 87-88 87z m347 57c-27 60-63 119-108 173-56 67-111 111-139 132l106 197c5 9 4 21-5 29-27 27-56 40-88 40-30 0-57-11-81-21-19-8-37-15-51-15-4 0-8 0-12 2-49 18-87 29-124 29-47 0-86-19-125-59-8-8-10-21-3-31l114-173c-28-21-82-65-136-130-46-54-82-113-108-173-33-76-50-155-50-235 0-107 87-194 194-194h472c106 0 193 87 193 194 0 80-17 159-49 235z m-577 487c24 20 47 30 75 30 29 0 63-10 107-27 9-3 19-5 29-5 24 0 48 10 70 19 21 9 42 18 61 18 10 0 23-2 40-14l-99-186h-174l-109 165z m433-866h-472c-80 0-144 64-144 144 0 133 49 259 145 375 61 74 122 119 141 133h187c19-14 80-59 141-133 96-116 145-242 145-375 0-80-64-144-143-144z" horiz-adv-x="870" />

<glyph glyph-name="notification" unicode="&#xe850;" d="M704 337v89c0 129-86 239-204 275v40c0 46-37 83-83 83-46 0-84-37-84-83v-40c-117-36-203-146-203-275v-89c0-113-44-221-122-303-8-8-10-20-6-30 5-10 15-17 26-17h253c13-63 69-111 136-111 67 0 123 48 136 111h253c11 0 21 7 25 17 5 10 2 22-5 30-79 82-122 190-122 303z m-315 404c0 15 12 28 28 28 15 0 27-13 27-28v-29c-9 1-18 1-27 1-10 0-19 0-28-1v29z m28-810c-36 0-67 24-79 56h157c-11-32-42-56-78-56z m-329 112c63 84 97 187 97 294v89c0 128 104 231 232 231 127 0 231-103 231-231v-89c0-107 34-210 98-294h-658z m690 383c0-15 12-28 28-28 15 0 27 13 27 28 0 111-43 216-122 295-10 10-28 10-39 0-11-11-11-29 0-40 68-68 106-159 106-255z m-750-28c15 0 28 13 28 28 0 96 37 187 105 255 11 11 11 29 0 40-10 10-28 10-39 0-79-79-122-184-122-295 0-15 12-28 28-28z" horiz-adv-x="833" />

</font>
</defs>
</svg>
